Книга джунглів / The Jungle Book (1967) 720p Ukr/Eng | Sub Ukr/Eng/Multi

Нові коментарі

Нова тема   Відповісти
Автор Повідомлення
Anonymous 







2018-05-20 00:52  
Книга джунглів / The Jungle Book (1967) 720p Ukr/Eng | Sub Ukr/Eng/Multi

Книга джунглів / The Jungle Book (1967) 720p Ukr/Eng | Sub Ukr/Eng/Multi
Альтернативні постери:





Жанр: анімація, дитячий, сімейний, музичний
Країна: США



Кінокомпанія: Walt Disney Productions
Режисер: Вольфганг Рейтерман / Wolfgang Reitherman
Актори: Філ Гарріс / Phil Harris, Себастьян Кабот / Sebastian Cabot, Брюс Рейтерман / Bruce Reitherman, Джордж Сендерс / George Sanders, Стерлінг Голловей / Sterling Holloway, Луї Прима / Louis Prima, Дж. Пет О'Меллі / J. Pat O'Malley, Верна Фелтон / Verna Felton, Клінт Говард / Clint Howard, Чад Стюарт / Chad Stuart та інші

Сюжет:
Вирощений вовками хлопчик Мауглі за рішенням зграї повинен повернутися до людей, щоб не потрапити в лапи до тигра-людоїда Шер Хана. Разом з пантерою Багірою Мауглі вирушає в дорогу, назустріч несподіваним знайомствам і небезпечним пригодам. Він подружиться з безтурботним ведмедем Балу, буде викрадений мавпами, стане полоненим підступного удава Каа, і ще багато чого трапиться із сміливим хлопчиком, який за словами самого Кіплінга «любить смикати смерть за вуса».


Тривалість: 01:18:27
Якість: 720p
Відео:
кодек:
розмір кадру: 1256 х 720
бітрейт: 8942 кб/с

Аудіо # 1:
мова: українська
переклад: одноголосий закадровий (Slava Rudik)
кодек: 2.0
бітрейт: 448 кб/с

Аудіо # 2:
мова: англійська
переклад: оригінал
кодек: 5.1
бітрейт: 448 кб/с

Субтитри # 1:
мова: українська
тип: програмні (м'які)
формат: *.srt

Субтитри # 2-4:
мова: англійська (повні, SDH, коментарі)
тип: програмні (м'які)
формат: *.srt

Субтитри # 5-30:
мова: хорватська, чеська, данська*, нідерландська*, фінська*, французька, німецька*, грецька, ісландська, італійська, норвезька*, польська, португальська*, румунська, словенська, іспанська*, шведська*, турецька
тип: програмні (м'які)
формат: *.srt
тип:
* крім повних субтитрів також присутні коментарі

Збережено оригінальні розділи, як на Blu-ray
Info
Код:
Complete name               : The Jungle Book (1967) [Ukr,Eng sub.Ukr,Eng,Multi] 720p [Hurtom].
Format                      :
Format version              : Version 4 / Version 2
File size                   : 5.40 GiB
Duration                    : 1 h 18 min
Overall bit rate            : 9 845 kb/s
Movie name                  : Книга джунглів / The Jungle Book (1967) [Ukr,Eng sub.Ukr,Eng,Multi] 720p [Hurtom]
Released date               : 1967
Encoded date                : UTC 2018-05-19 22:12:04
Writing application         : v23.0.0 ('The Bride Said No') 64-bit
Writing library             : libebml v1.3.6 + v1.4.9
Cover                       : Yes
Comment                     : http://www.imdb.com/title/tt0061852/
Attachments                 : cover.jpg
ARTIST                      : Філ Гарріс / Phil Harris, Себастьян Кабот / Sebastian Cabot, Брюс Рейтерман / Bruce Reitherman, Джордж Сендерс / George Sanders, Стерлінг Голловей / Sterling Holloway, Луї Прима / Louis Prima, Дж. Пет О'Меллі / J. Pat O'Malley, Верна Фелтон / Verna Felton, Клінт Говард / Clint Howard, Чад Стюарт / Chad Stuart та інші
DIRECTOR                    : Вольфганг Рейтерман / Wolfgang Reitherman
GENRE                       : анімація, дитячий, сімейний, музичний
SYNOPSIS                    : Вирощений вовками хлопчик Мауглі за рішенням зграї повинен повернутися до людей, щоб не потрапити в лапи до тигра-людоїда Шер Хана. Разом з пантерою Багірою Мауглі вирушає в дорогу, назустріч несподіваним знайомствам і небезпечним пригодам. Він подружиться з безтурботним ведмедем Балу, буде викрадений мавпами, стане полоненим підступного удава Каа, і ще багато чого трапиться із сміливим хлопчиком, який за словами самого Кіплінга «любить смикати смерть за вуса»...
Url                         : https://toloka.to/t90039

Video
ID                          : 1
Format                      : AVC
Format/Info                 : Advanced Video Codec
Format profile              : [email protected]
Format settings             : CABAC / 9 Ref Frames
Format settings, CABAC      : Yes
Format settings, ReFrames   : 9 frames
Codec ID                    : V_MPEG4/ISO/AVC
Duration                    : 1 h 18 min
Bit rate                    : 8 942 kb/s
Width                       : 1 256 pixels
Height                      : 720 pixels
Display aspect ratio        : 16:9
Frame rate mode             : Constant
Frame rate                  : 23.976 (24000/1001) FPS
Color space                 : YUV
Chroma subsampling          : 4:2:0
Bit depth                   : 8 bits
Scan type                   : Progressive
Bits/(Pixel*Frame)          : 0.412
Stream size                 : 4.90 GiB (91%)
Title                       : Книга джунглів / The Jungle Book (1967) 720p [HDClub]
Writing library             : core 142 r2431+42 c69a006 tMod [[email protected] X86_64]
Encoding settings           : cabac=1 / ref=9 / deblock=1:-2:-2 / analyse=0x3:0x133 / me=tesa / subme=10 / psy=1 / fade_compensate=0.00 / psy_rd=0.70:0.00 / mixed_ref=1 / me_range=24 / chroma_me=1 / trellis=2 / 8x8dct=1 / cqm=0 / deadzone=21,11 / fast_pskip=0 / chroma_qp_offset=-3 / threads=12 / lookahead_threads=2 / sliced_threads=0 / nr=0 / decimate=0 / interlaced=0 / bluray_compat=0 / constrained_intra=0 / fgo=0 / bframes=8 / b_pyramid=2 / b_adapt=2 / b_bias=0 / direct=3 / weightb=1 / open_gop=0 / weightp=2 / keyint=250 / keyint_min=23 / scenecut=40 / intra_refresh=0 / rc_lookahead=60 / rc=crf / mbtree=0 / crf=13.0000 / qcomp=0.65 / qpmin=0:0:0 / qpmax=69:69:69 / qpstep=4 / vbv_maxrate=62500 / vbv_bufsize=78125 / crf_max=0.0 / nal_hrd=none / filler=0 / ip_ratio=1.40 / pb_ratio=1.30 / aq=4:1.00 / aq-sensitivity=10.00 / aq-factor=1.00:1.00:1.00 / aq2=1:0.60 / aq2-sensitivity=15.00 / aq2-factor=1.00:1.00:1.00 / aq3=0
Language                    : English
Default                     : Yes
Forced                      : No

Audio #1
ID                          : 2
Format                      : AC-3
Format/Info                 : Audio Coding 3
Codec ID                    : A_AC3
Duration                    : 1 h 18 min
Bit rate mode               : Constant
Bit rate                    : 448 kb/s
Channel(s)                  : 2 channels
Channel positions           : Front: L R
Sampling rate               : 48.0 kHz
Frame rate                  : 31.250 FPS (1536 SPF)
Bit depth                   : 16 bits
Compression mode            : Lossy
Stream size                 : 251 MiB (5%)
Title                       : AVO [Slava Rudik], 2.0 448 Kbps
Language                    : Ukrainian
Service kind                : Complete Main
Default                     : Yes
Forced                      : Yes

Audio #2
ID                          : 3
Format                      : AC-3
Format/Info                 : Audio Coding 3
Codec ID                    : A_AC3
Duration                    : 1 h 18 min
Bit rate mode               : Constant
Bit rate                    : 448 kb/s
Channel(s)                  : 6 channels
Channel positions           : Front: L C R, Side: L R, LFE
Sampling rate               : 48.0 kHz
Frame rate                  : 31.250 FPS (1536 SPF)
Bit depth                   : 16 bits
Compression mode            : Lossy
Stream size                 : 251 MiB (5%)
Title                       : Original, 5.1 448 Kbps
Language                    : English
Service kind                : Complete Main
Default                     : No
Forced                      : No

Text #1
ID                          : 4
Format                      : UTF-8
Codec ID                    : S_TEXT/UTF8
Codec ID/Info               : UTF-8 Plain Text
Duration                    : 1 h 17 min
Bit rate                    : 93 b/s
Count of elements           : 1100
Stream size                 : 53.3 KiB (0%)
Title                       : Ukr full [DVD R5]
Language                    : Ukrainian
Default                     : No
Forced                      : No

Text #2
ID                          : 5
Format                      : UTF-8
Codec ID                    : S_TEXT/UTF8
Codec ID/Info               : UTF-8 Plain Text
Duration                    : 1 h 15 min
Bit rate                    : 58 b/s
Count of elements           : 1082
Stream size                 : 31.9 KiB (0%)
Title                       : Eng full
Language                    : English
Default                     : No
Forced                      : No

Text #3
ID                          : 6
Format                      : UTF-8
Codec ID                    : S_TEXT/UTF8
Codec ID/Info               : UTF-8 Plain Text
Duration                    : 1 h 15 min
Bit rate                    : 66 b/s
Count of elements           : 1268
Stream size                 : 36.4 KiB (0%)
Title                       : Eng SDH
Language                    : English
Default                     : No
Forced                      : No

Text #4
ID                          : 7
Format                      : UTF-8
Codec ID                    : S_TEXT/UTF8
Codec ID/Info               : UTF-8 Plain Text
Duration                    : 1 h 18 min
Bit rate                    : 122 b/s
Count of elements           : 1511
Stream size                 : 69.9 KiB (0%)
Title                       : Eng Commentary
Language                    : English
Default                     : No
Forced                      : No

Text #5
ID                          : 8
Format                      : UTF-8
Codec ID                    : S_TEXT/UTF8
Codec ID/Info               : UTF-8 Plain Text
Duration                    : 1 h 15 min
Bit rate                    : 57 b/s
Count of elements           : 975
Stream size                 : 31.6 KiB (0%)
Language                    : Croatian
Default                     : No
Forced                      : No

Text #6
ID                          : 9
Format                      : UTF-8
Codec ID                    : S_TEXT/UTF8
Codec ID/Info               : UTF-8 Plain Text
Duration                    : 1 h 17 min
Bit rate                    : 53 b/s
Count of elements           : 1061
Stream size                 : 30.4 KiB (0%)
Language                    : Czech
Default                     : No
Forced                      : No

Text #7
ID                          : 10
Format                      : UTF-8
Codec ID                    : S_TEXT/UTF8
Codec ID/Info               : UTF-8 Plain Text
Duration                    : 1 h 17 min
Bit rate                    : 53 b/s
Count of elements           : 1075
Stream size                 : 30.6 KiB (0%)
Language                    : Danish
Default                     : No
Forced                      : No

Text #8
ID                          : 11
Format                      : UTF-8
Codec ID                    : S_TEXT/UTF8
Codec ID/Info               : UTF-8 Plain Text
Duration                    : 1 h 18 min
Bit rate                    : 111 b/s
Count of elements           : 1478
Stream size                 : 63.8 KiB (0%)
Title                       : Commentary
Language                    : Danish
Default                     : No
Forced                      : No

Text #9
ID                          : 12
Format                      : UTF-8
Codec ID                    : S_TEXT/UTF8
Codec ID/Info               : UTF-8 Plain Text
Duration                    : 1 h 17 min
Bit rate                    : 47 b/s
Count of elements           : 751
Stream size                 : 27.0 KiB (0%)
Language                    : Dutch
Default                     : No
Forced                      : No

Text #10
ID                          : 13
Format                      : UTF-8
Codec ID                    : S_TEXT/UTF8
Codec ID/Info               : UTF-8 Plain Text
Duration                    : 1 h 18 min
Bit rate                    : 101 b/s
Count of elements           : 1228
Stream size                 : 58.3 KiB (0%)
Title                       : Commentary
Language                    : Dutch
Default                     : No
Forced                      : No

Text #11
ID                          : 14
Format                      : UTF-8
Codec ID                    : S_TEXT/UTF8
Codec ID/Info               : UTF-8 Plain Text
Duration                    : 1 h 17 min
Bit rate                    : 51 b/s
Count of elements           : 1068
Stream size                 : 29.2 KiB (0%)
Language                    : Finnish
Default                     : No
Forced                      : No

Text #12
ID                          : 15
Format                      : UTF-8
Codec ID                    : S_TEXT/UTF8
Codec ID/Info               : UTF-8 Plain Text
Duration                    : 1 h 18 min
Bit rate                    : 104 b/s
Count of elements           : 1495
Stream size                 : 59.7 KiB (0%)
Title                       : Commentary
Language                    : Finnish
Default                     : No
Forced                      : No

Text #13
ID                          : 16
Format                      : UTF-8
Codec ID                    : S_TEXT/UTF8
Codec ID/Info               : UTF-8 Plain Text
Duration                    : 1 h 17 min
Bit rate                    : 40 b/s
Count of elements           : 880
Stream size                 : 23.2 KiB (0%)
Language                    : French
Default                     : No
Forced                      : No

Text #14
ID                          : 17
Format                      : UTF-8
Codec ID                    : S_TEXT/UTF8
Codec ID/Info               : UTF-8 Plain Text
Duration                    : 1 h 17 min
Bit rate                    : 62 b/s
Count of elements           : 1107
Stream size                 : 35.6 KiB (0%)
Language                    : German
Default                     : No
Forced                      : No

Text #15
ID                          : 18
Format                      : UTF-8
Codec ID                    : S_TEXT/UTF8
Codec ID/Info               : UTF-8 Plain Text
Duration                    : 1 h 18 min
Bit rate                    : 120 b/s
Count of elements           : 1527
Stream size                 : 69.2 KiB (0%)
Title                       : Commentary
Language                    : German
Default                     : No
Forced                      : No

Text #16
ID                          : 19
Format                      : UTF-8
Codec ID                    : S_TEXT/UTF8
Codec ID/Info               : UTF-8 Plain Text
Duration                    : 1 h 18 min
Bit rate                    : 74 b/s
Count of elements           : 816
Stream size                 : 42.4 KiB (0%)
Language                    : Greek
Default                     : No
Forced                      : No

Text #17
ID                          : 20
Format                      : UTF-8
Codec ID                    : S_TEXT/UTF8
Codec ID/Info               : UTF-8 Plain Text
Duration                    : 1 h 17 min
Bit rate                    : 49 b/s
Count of elements           : 902
Stream size                 : 27.8 KiB (0%)
Language                    : Icelandic
Default                     : No
Forced                      : No

Text #18
ID                          : 21
Format                      : UTF-8
Codec ID                    : S_TEXT/UTF8
Codec ID/Info               : UTF-8 Plain Text
Duration                    : 1 h 17 min
Bit rate                    : 51 b/s
Count of elements           : 1063
Stream size                 : 29.3 KiB (0%)
Language                    : Italian
Default                     : No
Forced                      : No

Text #19
ID                          : 22
Format                      : UTF-8
Codec ID                    : S_TEXT/UTF8
Codec ID/Info               : UTF-8 Plain Text
Duration                    : 1 h 17 min
Bit rate                    : 49 b/s
Count of elements           : 1047
Stream size                 : 28.2 KiB (0%)
Language                    : Norwegian
Default                     : No
Forced                      : No

Text #20
ID                          : 23
Format                      : UTF-8
Codec ID                    : S_TEXT/UTF8
Codec ID/Info               : UTF-8 Plain Text
Duration                    : 1 h 18 min
Bit rate                    : 100 b/s
Count of elements           : 1343
Stream size                 : 57.5 KiB (0%)
Title                       : Commentary
Language                    : Norwegian
Default                     : No
Forced                      : No

Text #21
ID                          : 24
Format                      : UTF-8
Codec ID                    : S_TEXT/UTF8
Codec ID/Info               : UTF-8 Plain Text
Duration                    : 1 h 17 min
Bit rate                    : 52 b/s
Count of elements           : 1107
Stream size                 : 29.8 KiB (0%)
Language                    : Polish
Default                     : No
Forced                      : No

Text #22
ID                          : 25
Format                      : UTF-8
Codec ID                    : S_TEXT/UTF8
Codec ID/Info               : UTF-8 Plain Text
Duration                    : 1 h 17 min
Bit rate                    : 55 b/s
Count of elements           : 1098
Stream size                 : 31.5 KiB (0%)
Language                    : Portuguese
Default                     : No
Forced                      : No

Text #23
ID                          : 26
Format                      : UTF-8
Codec ID                    : S_TEXT/UTF8
Codec ID/Info               : UTF-8 Plain Text
Duration                    : 1 h 18 min
Bit rate                    : 117 b/s
Count of elements           : 1550
Stream size                 : 67.3 KiB (0%)
Title                       : Commentary
Language                    : Portuguese
Default                     : No
Forced                      : No

Text #24
ID                          : 27
Format                      : UTF-8
Codec ID                    : S_TEXT/UTF8
Codec ID/Info               : UTF-8 Plain Text
Duration                    : 1 h 17 min
Bit rate                    : 55 b/s
Count of elements           : 1097
Stream size                 : 31.8 KiB (0%)
Language                    : Romanian
Default                     : No
Forced                      : No

Text #25
ID                          : 28
Format                      : UTF-8
Codec ID                    : S_TEXT/UTF8
Codec ID/Info               : UTF-8 Plain Text
Duration                    : 1 h 17 min
Bit rate                    : 52 b/s
Count of elements           : 968
Stream size                 : 29.6 KiB (0%)
Language                    : Slovenian
Default                     : No
Forced                      : No

Text #26
ID                          : 29
Format                      : UTF-8
Codec ID                    : S_TEXT/UTF8
Codec ID/Info               : UTF-8 Plain Text
Duration                    : 1 h 17 min
Bit rate                    : 54 b/s
Count of elements           : 1083
Stream size                 : 31.2 KiB (0%)
Language                    : Spanish
Default                     : No
Forced                      : No

Text #27
ID                          : 30
Format                      : UTF-8
Codec ID                    : S_TEXT/UTF8
Codec ID/Info               : UTF-8 Plain Text
Duration                    : 1 h 18 min
Bit rate                    : 114 b/s
Count of elements           : 1501
Stream size                 : 65.5 KiB (0%)
Title                       : Commentary
Language                    : Spanish
Default                     : No
Forced                      : No

Text #28
ID                          : 31
Format                      : UTF-8
Codec ID                    : S_TEXT/UTF8
Codec ID/Info               : UTF-8 Plain Text
Duration                    : 1 h 17 min
Bit rate                    : 53 b/s
Count of elements           : 1006
Stream size                 : 30.6 KiB (0%)
Language                    : Swedish
Default                     : No
Forced                      : No

Text #29
ID                          : 32
Format                      : UTF-8
Codec ID                    : S_TEXT/UTF8
Codec ID/Info               : UTF-8 Plain Text
Duration                    : 1 h 18 min
Bit rate                    : 100 b/s
Count of elements           : 1289
Stream size                 : 57.8 KiB (0%)
Title                       : Commentary
Language                    : Swedish
Default                     : No
Forced                      : No

Text #30
ID                          : 33
Format                      : UTF-8
Codec ID                    : S_TEXT/UTF8
Codec ID/Info               : UTF-8 Plain Text
Duration                    : 1 h 17 min
Bit rate                    : 59 b/s
Count of elements           : 977
Stream size                 : 33.6 KiB (0%)
Language                    : Turkish
Default                     : No
Forced                      : No

Menu
00:00:00.000                : en:Opening Credits
00:02:30.317                : en:The Man-Cub
00:04:31.938                : en:Adopted by Wolves
00:06:07.200                : en:The Wolf Pack Elders
00:09:42.040                : en:Kaa Drops in for a S-s-snack
00:13:04.701                : en:"Colonel Hathi's March"
00:14:57.563                : en:Inspection
00:21:05.973                : en:Mowgli Meets Baloo
00:24:15.663                : en:Baloo and Mowgli
00:25:14.638                : en:"The Bare Necessitites"
00:29:44.533                : en:Mowgli Is Kidnapped
00:33:46.900                : en:"I Wan'na Be Like You"
00:39:14.978                : en:Settling Down for the Night
00:43:47.500                : en:A Long Walk
00:47:12.621                : en:Shere Khan, the Hunter
00:52:51.043                : en:Mowgli on His Own
00:55:15.729                : en:"Trust in Me"
01:01:04.661                : en:The Vultures
01:04:20.231                : en:"That's What Friends Are For"
01:06:49.881                : en:Mowgli Confronts Shere Khan
01:07:39.639                : en:A Tiger By the Tail
01:10:15.795                : en:A Dark Moment
01:13:24.400                : en:"My Own Home"
01:16:52.358                : en:Happy Endings for All


Джерело: &


Авторський реліз (завантажувати можна без реєстрації)
 Трекер:    Зареєстрований   

Завантажити / скачати мультфільм українською



відео для новачків



 Зареєстрований:   2018-05-20 02:13
 Розмір:   5.4 GB 
 Оцінка мультфільму:   10/10 (Голосів: 7)
   
Інші релізи
bambulla 
Відео Гуртом - запис з ТБ
Відео Гуртом - запис з ТБ


З нами з: 05.06.12
Востаннє: 18.09.19
Повідомлень: 78

2018-05-29 16:43  
А я зрадів,думав нарешті українська озвучка,але на жаль...
[email protected] 
Новенький


З нами з: 01.03.15
Востаннє: 31.01.19
Повідомлень: 2

2018-05-31 16:13  
Бездарне та ніяке озвучення!!!Перестаньте псувати мультфільми!!!
Ваш часовий пояс: GMT + 2 Години

Нова тема   Відповісти