Тріска / Sliver (1993) AVC 2xUkr/Eng | sub Eng

Нові коментарі

Нова тема   Відповісти
Автор Повідомлення
Anonymous 







2018-05-19 23:57  
Тріска / Sliver (1993) AVC 2xUkr/Eng | sub Eng

Тріска / Sliver (1993) AVC 2xUkr/Eng | sub Eng


Жанр: драма, трилер
Країна: США



Кінокомпанія: Paramount Pictures
Режисер: Філліп Нойс
Актори: Шерон Стоун, Вільям Болдуін, Том Беренджер, Поллі Вокер, Коллін Кемп

Сюжет:
За романом Айрі Левіна. Співробітниця видавництва Кей Норріс переїжджає на нову квартиру в модному хмарочосі, який в народі називають «тріска».

Тут її починають між собою ділити двоє чоловіків - власник будинку і один з мешканців, автор популярних детективів. Серія таємничих вбивств, які відбуваються в будинку, наводить її на думку, що довкола неї самої звужується небезпечне коло. Кей розуміє, що невідомий вбивця — один з її залицяльників...


Тривалість: 01:46:30
Якість: AVC
Відео:
розмір кадру: 1024х 504
бітрейт: 1295 кб/с

Аудіо # 1:
мова: українська
переклад: багатоголосий закадровий
кодек: 2.0
бітрейт: 192 кб/с

Аудіо # 2: погана якість запису!
мова: українська
переклад: багатоголосий закадровий
кодек: 2.0
бітрейт: 192 кб/с

Аудіо # 3:
мова: англійська
переклад: оригінал
кодек: 2.0
бітрейт: 192 кб/с

Субтитри:
мова: англійська
тип: програмні (м'які)
формат: *.srt
Info
General
Unique ID : 217221656680459321646207556783637103646 (0xA36B5E8B8F95D15E5D16768DFF61841E)
Complete name : E:\films\Sliver (1993) AVC [2xUk.Eng] Hurtom.
Format :
Format version : Version 4 / Version 2
File size : 1.39 GiB
Duration : 1 h 46 min
Overall bit rate : 1 873 kb/s
Encoded date : UTC 2018-05-19 20:17:29
Writing application : v21.0.0 ('Tardigrades Will Inherit The Earth') 64-bit
Writing library : libebml v1.3.5 + v1.4.8

Video
ID : 1
Format : AVC
Format/Info : Advanced Video Codec
Format profile : [email protected]
Format settings, CABAC : Yes
Format settings, ReFrames : 3 frames
Codec ID : V_MPEG4/ISO/AVC
Duration : 1 h 46 min
Bit rate : 1 295 kb/s
Width : 1 024 pixels
Height : 504 pixels
Display aspect ratio : 2.032
Frame rate mode : Constant
Frame rate : 23.976 (24000/1001) FPS
Color space : YUV
Chroma subsampling : 4:2:0
Bit depth : 8 bits
Scan type : Progressive
Bits/(Pixel*Frame) : 0.105
Stream size : 987 MiB (69%)
Title : Sliver (1993) AVC [2xUk.Eng] Hurtom
Writing library : core 155 r2901 7d0ff22
Encoding settings : cabac=1 / ref=3 / deblock=1:0:0 / analyse=0x1:0x111 / me=hex / subme=8 / psy=1 / psy_rd=1.00:0.00 / mixed_ref=1 / me_range=16 / chroma_me=1 / trellis=2 / 8x8dct=0 / cqm=0 / deadzone=21,11 / fast_pskip=1 / chroma_qp_offset=-2 / threads=12 / lookahead_threads=2 / sliced_threads=0 / nr=0 / decimate=1 / interlaced=0 / bluray_compat=0 / constrained_intra=0 / bframes=3 / b_pyramid=0 / b_adapt=1 / b_bias=0 / direct=1 / weightb=1 / open_gop=0 / weightp=2 / keyint=240 / keyint_min=23 / scenecut=40 / intra_refresh=0 / rc_lookahead=40 / rc=crf / mbtree=1 / crf=20.0 / qcomp=0.60 / qpmin=0 / qpmax=69 / qpstep=4 / vbv_maxrate=14000 / vbv_bufsize=14000 / crf_max=0.0 / nal_hrd=none / filler=0 / ip_ratio=1.40 / aq=1:1.00
Language : Multiple languages
Default : Yes
Forced : No

Audio #1
ID : 2
Format : AC-3
Format/Info : Audio Coding 3
Mode extension : CM (complete main)
Format settings, Endianness : Big
Codec ID : A_AC3
Duration : 1 h 46 min
Bit rate mode : Constant
Bit rate : 192 kb/s
Channel(s) : 2 channels
Channel positions : Front: L R
Sampling rate : 48.0 kHz
Frame rate : 31.250 FPS (1536 spf)
Bit depth : 16 bits
Compression mode : Lossy
Stream size : 146 MiB (10%)
Title : INTER channel
Language : Ukrainian
Default : Yes
Forced : Yes

Audio #2
ID : 3
Format : AC-3
Format/Info : Audio Coding 3
Mode extension : CM (complete main)
Format settings, Endianness : Big
Codec ID : A_AC3
Duration : 1 h 46 min
Bit rate mode : Constant
Bit rate : 192 kb/s
Channel(s) : 2 channels
Channel positions : Front: L R
Sampling rate : 48.0 kHz
Frame rate : 31.250 FPS (1536 spf)
Bit depth : 16 bits
Compression mode : Lossy
Stream size : 146 MiB (10%)
Title : ICTV channel
Language : Ukrainian
Default : No
Forced : No

Audio #3
ID : 4
Format : AC-3
Format/Info : Audio Coding 3
Mode extension : CM (complete main)
Format settings, Endianness : Big
Codec ID : A_AC3
Duration : 1 h 46 min
Bit rate mode : Constant
Bit rate : 192 kb/s
Channel(s) : 2 channels
Channel positions : Front: L R
Sampling rate : 48.0 kHz
Frame rate : 31.250 FPS (1536 spf)
Bit depth : 16 bits
Compression mode : Lossy
Stream size : 146 MiB (10%)
Title : original
Language : English
Default : No
Forced : No

Text
ID : 5
Format : UTF-8
Codec ID : S_TEXT/UTF8
Codec ID/Info : UTF-8 Plain Text
Duration : 1 h 44 min
Bit rate : 46 b/s
Count of elements : 1120
Stream size : 35.8 KiB (0%)
Language : English
Default : Yes
Forced : No
Скріншоти






Подяки: RobinHud за доріжку від ICTV і постер до фільму.

Джерело:


Срібний реліз (на рейтинг впливає 50% завантаженого)
 Трекер:    Зареєстрований   

Завантажити / скачати фільм українською



відео для новачків



 Зареєстрований:   2018-05-19 23:57
 Розмір:   1.39 GB 
 Оцінка фільму:   9/10 (Голосів: 2)
   
Інші релізи
   Тріска / Sliver (1993) 720p 2xUkr/Eng | sub Eng bodia87  1 / 0   3.06 GB   2018-05-20 00:16 
   Тріска / Sliver (1993) Ukr/Eng RobinHud  1 / 0   2.19 GB   2010-06-15 20:42 
Ваш часовий пояс: GMT + 2 Години

Нова тема   Відповісти