Книга джунглів / The Jungle Book (1967) Ukr/Eng | Sub Ukr/Eng

Нові коментарі

Нова тема   Відповісти
Автор Повідомлення
Anonymous 







2018-05-19 23:05  
Книга джунглів / The Jungle Book (1967) Ukr/Eng | Sub Ukr/Eng

Книга джунглів / The Jungle Book (1967) Ukr/Eng | Sub Ukr/Eng
Альтернативний постер:



Жанр: анімація, дитячий, сімейний, музичний
Країна: США



Кінокомпанія: Walt Disney Productions
Режисер: Вольфганг Рейтерман / Wolfgang Reitherman
Актори: Філ Гарріс, Себастьян Кабот, Брюс Рейтерман, Джордж Сендерс, Стерлінг Голловей, Луї Прима, Дж. Пет О'Меллі, Верна Фелтон, Клінт Говард, Чад Стюарт та інші

Сюжет:
Вирощений вовками хлопчик Мауглі за рішенням зграї повинен повернутися до людей, щоб не потрапити в лапи до тигра-людоїда Шер Хана. Разом з пантерою Багірою Мауглі вирушає в дорогу, назустріч несподіваним знайомствам і небезпечним пригодам. Він подружиться з безтурботним ведмедем Балу, буде викрадений мавпами, стане полоненим підступного удава Каа, і ще багато чого трапиться із сміливим хлопчиком, який за словами самого Кіплінга «любить смикати смерть за вуса».


Тривалість: 01:18:27
Якість:
Відео:
кодек:
розмір кадру: 704 х 400
бітрейт: 1742 кб/с

Аудіо # 1:
мова: українська
переклад: одноголосий закадровий (Slava Rudik)
кодек: 2.0
бітрейт: 448 кб/с

Аудіо # 2:
мова: англійська
переклад: оригінал
кодек: 5.1
бітрейт: 448 кб/с

Субтитри # 1:
мова: українська
тип: програмні (м'які)
формат: *.srt

Субтитри # 2-3:
мова: англійська (повні, SDH)
тип: програмні (м'які)
формат: *.srt
Info
Код:
General
Complete name               : The Jungle Book (1967) [Ukr,Eng] [Hurtom].avi
Format                      : AVI
Format/Info                 : Audio Video Interleave
File size                   : 1.45 GiB
Duration                    : 1 h 18 min
Overall bit rate            : 2 652 kb/s
Movie name                  : Книга джунглів / The Jungle Book (1967) [Ukr,Eng] [Hurtom & HQClub]
Genre                       : анімація, дитячий, сімейний, музичний
Recorded date               : 19.05.2018
Writing application         : VirtualDubModUkr 1.5.10.2 (build 2542/release)
Writing library             : VirtualDubMod build 2542/release
Comment                     : https://toloka.to/t90035

Video
ID                          : 0
Format                      : MPEG-4 Visual
Format profile              : Advanced [email protected]
Format settings             : BVOP1 / Custom Matrix
Format settings, BVOP       : 1
Format settings, QPel       : No
Format settings, GMC        : No warppoints
Format settings, Matrix     : Custom
Codec ID                    :
Codec ID/Hint               :
Duration                    : 1 h 18 min
Bit rate                    : 1 742 kb/s
Width                       : 704 pixels
Height                      : 400 pixels
Display aspect ratio        : 16:9
Frame rate                  : 23.976 (24000/1001) FPS
Color space                 : YUV
Chroma subsampling          : 4:2:0
Bit depth                   : 8 bits
Scan type                   : Progressive
Compression mode            : Lossy
Bits/(Pixel*Frame)          : 0.258
Stream size                 : 978 MiB (66%)
Writing library             : 65

Audio #1
ID                          : 1
Format                      : AC-3
Format/Info                 : Audio Coding 3
Codec ID                    : 2000
Duration                    : 1 h 18 min
Bit rate mode               : Constant
Bit rate                    : 448 kb/s
Channel(s)                  : 2 channels
Channel positions           : Front: L R
Sampling rate               : 48.0 kHz
Frame rate                  : 31.250 FPS (1536 SPF)
Bit depth                   : 16 bits
Compression mode            : Lossy
Stream size                 : 251 MiB (17%)
Alignment                   : Split accross interleaves
Interleave, duration        : 42  ms (1.00 video frame)
Interleave, preload duratio : 500  ms
Title                       : UKR AVO [Slava Rudik]
Service kind                : Complete Main

Audio #2
ID                          : 2
Format                      : AC-3
Format/Info                 : Audio Coding 3
Codec ID                    : 2000
Duration                    : 1 h 18 min
Bit rate mode               : Constant
Bit rate                    : 448 kb/s
Channel(s)                  : 6 channels
Channel positions           : Front: L C R, Side: L R, LFE
Sampling rate               : 48.0 kHz
Frame rate                  : 31.250 FPS (1536 SPF)
Bit depth                   : 16 bits
Compression mode            : Lossy
Stream size                 : 251 MiB (17%)
Alignment                   : Split accross interleaves
Interleave, duration        : 42  ms (1.00 video frame)
Interleave, preload duratio : 500  ms
Service kind                : Complete Main


Джерело: &


Авторський реліз (завантажувати можна без реєстрації)
 Трекер:    Зареєстрований   

Завантажити / скачати мультфільм українською



відео для новачків



 Зареєстрований:   2018-05-19 23:22
 Розмір:   1.45 GB 
 Оцінка мультфільму:   9.7/10 (Голосів: 33)
   
Інші релізи
sprint 
Новенький


З нами з: 10.06.08
Востаннє: 12.10.19
Повідомлень: 7

2018-05-23 21:51  
Дякую!
dniprovec 
Частий відвідувач


З нами з: 02.01.12
Востаннє: 15.10.19
Повідомлень: 33

2018-06-29 00:22  
Дякую !
kuzyavr 
Новенький


З нами з: 28.10.16
Востаннє: 05.10.19
Повідомлень: 1

2019-03-03 18:44  
Такий переклад не можливо слухати!
Слава не рулить...

Ваш часовий пояс: GMT + 2 Години

Нова тема   Відповісти