Африканець / L'Africain (1983) Remux 1080р Ukr/Fra | Sub Fra/Eng

Нові коментарі

Нова тема   Відповісти
Автор Повідомлення
staf777 
Відео Гуртом - підтримка та поширення
Відео Гуртом - підтримка та поширення


З нами з: 16.11.16
Востаннє: 28.01.20
Повідомлень: 3383

2018-05-18 21:30  
Африканець / L'Africain (1983) Remux 1080р Ukr/Fra | Sub Fra/Eng

Африканець / L'Africain (1983) Remux 1080р Ukr/Fra | Sub Fra/Eng
Українізований постер



Жанр: комедія, пригодницький
Країна: Франція



Кінокомпанія: Renn Productions
Режисер: Філіпп де Брока / Philippe de Broca
Актори: Катрін Деньов / Catherine Deneuve, Філіпп Нуаре / Philippe Noiret, Жан-Франціс Балмер / Jean-François Balmer, Жакес Франціс / Jacques François, Джозеф Момо / Joseph Momo та інші

Сюжет:
Фільм знятий в екзотичних місцях Африки, куди прилітає героїня фільму, щоб вивчити можливість будівництва готелю для туристів. Там вона зустрічає свого чоловіка, льотчика, який охороняє заповідник від браконьєрів.
Вони розлучилися кілька років тому, але так і не змогли забути один одного. Він робить все можливе, щоб перешкодити знищенню цього недоторканого куточка природи. Неабияке зіткнення інтересів, прикольні пригоди та справжня небезпека відроджують колишнє кохання з новою силою.


Тривалість: 01:40:50
Якість: Remux 1080р
Відео:
кодек:
розмір кадру: 1920x1080
бітрейт: 29 Mб/с

Аудіо # 1:
мова: українська
переклад: двоголосий закадровий
кодек: 2.0
бітрейт: 192 кб/с

Аудіо # 2:
мова: французька
переклад: оригінал
кодек: 5.1
бітрейт: 1509 кб/с

Аудіо # 3:
мова: французька
переклад: оригінал
кодек: 5.1
бітрейт: 384 кб/с

Субтитри:
мова: французька
тип: пререндерні
формат: *.pgs

Субтитри:
мова: англійська
тип: пререндерні
формат: *.pgs
Info
General
Unique ID : 255005937383311864971350638633209259330 (0xBFD85B699D6AED7CA81D0589DC436542)
Complete name : H:\Майбутні релізи\L'Africain (1983) Remux 1080р [Ukr][Fra] [Sub Fra Eng].
Format :
Format version : Version 4 / Version 2
File size : 21.9 GiB
Duration : 1 h 40 min
Overall bit rate mode : Variable
Overall bit rate : 31.1 Mb/s
Movie name : L'Africain (1983) Remux 1080р [Ukr][Fra] [Sub Fra Eng]
Encoded date : UTC 2018-05-19 15:50:49
Writing application : v9.8.0 ('Kuglblids') 64bit
Writing library : libebml v1.3.4 + v1.4.5
Cover : Yes
Attachments : cover.jpg

Video
ID : 1
Format : AVC
Format/Info : Advanced Video Codec
Format profile : [email protected]
Format settings : CABAC / 2 Ref Frames
Format settings, CABAC : Yes
Format settings, ReFrames : 2 frames
Codec ID : V_MPEG4/ISO/AVC
Duration : 1 h 40 min
Bit rate mode : Variable
Bit rate : 29.0 Mb/s
Width : 1 920 pixels
Height : 1 080 pixels
Display aspect ratio : 16:9
Frame rate mode : Constant
Frame rate : 23.976 (24000/1001) FPS
Color space : YUV
Chroma subsampling : 4:2:0
Bit depth : 8 bits
Scan type : Progressive
Bits/(Pixel*Frame) : 0.583
Stream size : 20.4 GiB (93%)
Default : Yes
Forced : No

Audio #1
ID : 2
Format : AC-3
Format/Info : Audio Coding 3
Codec ID : A_AC3
Duration : 1 h 40 min
Bit rate mode : Constant
Bit rate : 192 kb/s
Channel(s) : 2 channels
Channel positions : Front: L R
Sampling rate : 48.0 kHz
Frame rate : 31.250 FPS (1536 SPF)
Bit depth : 16 bits
Compression mode : Lossy
Stream size : 138 MiB (1%)
Title : [UA-MVO-1+1]
Language : Ukrainian
Service kind : Complete Main
Default : Yes
Forced : Yes

Audio #2
ID : 3
Format :
Format/Info : Digital Theater Systems
Codec ID : A_DTS
Duration : 1 h 40 min
Bit rate mode : Constant
Bit rate : 1 509 kb/s
Channel(s) : 3 channels
Channel positions : Front: L C R
Sampling rate : 48.0 kHz
Frame rate : 93.750 FPS (512 SPF)
Bit depth : 16 bits
Compression mode : Lossy
Stream size : 1.06 GiB (5%)
Language : French
Default : No
Forced : No

Audio #3
ID : 4
Format : AC-3
Format/Info : Audio Coding 3
Codec ID : A_AC3
Duration : 1 h 40 min
Bit rate mode : Constant
Bit rate : 384 kb/s
Channel(s) : 6 channels
Channel positions : Front: L C R, Side: L R, LFE
Sampling rate : 48.0 kHz
Frame rate : 31.250 FPS (1536 SPF)
Bit depth : 16 bits
Compression mode : Lossy
Stream size : 277 MiB (1%)
Title : |DVD R5|
Language : French
Service kind : Complete Main
Default : No
Forced : No

Text #1
ID : 5
Format : PGS
Muxing mode : zlib
Codec ID : S_HDMV/PGS
Codec ID/Info : Picture based subtitle format used on BDs/HD-DVDs
Duration : 1 h 40 min
Bit rate : 8 558 b/s
Count of elements : 2449
Stream size : 6.13 MiB (0%)
Language : French
Default : No
Forced : No

Text #2
ID : 6
Format : PGS
Muxing mode : zlib
Codec ID : S_HDMV/PGS
Codec ID/Info : Picture based subtitle format used on BDs/HD-DVDs
Duration : 1 h 40 min
Bit rate : 7 115 b/s
Count of elements : 2016
Stream size : 5.11 MiB (0%)
Language : English
Default : No
Forced : No
Скріншоти




українська доріжка - robotron005 - зведення, olgaya - запис з ТБ; українізований постер - thefir

Джерело: &
Особиста оцінка: 0 - не дивився


Золотий реліз (завантажене не впливає на рейтинг)
 Трекер:    Зареєстрований   

Завантажити / скачати фільм українською



відео для новачків



 Зареєстрований:   2018-05-19 19:47
 Розмір:   21.88 GB 
 Оцінка фільму:   9.7/10 (Голосів: 7)
   
Інші релізи
   Африканець / L'Africain (1983) Ukr/Fra drop_plz  6 / 0   1.77 GB   2018-05-19 07:54 
   Африканець / L'Africain (1983) 720p Ukr/Fra | Sub Fra/Eng igor911  3 / 0   7.41 GB   2014-11-03 20:32 
ВАВУНЯ 
VIP


З нами з: 30.06.15
Востаннє: 28.01.20
Повідомлень: 277

2018-05-20 14:39  
у дитинстві дивився із батьками прем'єру у кінотеатрі - чудова стрічка!
одна із моїх улюблених французьких кінострічок.
із задоволенням подивлюсь ще раз... у "кільканадцятий" раз. Happy
дякую за Remux 1080р.

Ваш часовий пояс: GMT + 2 Години

Нова тема   Відповісти