Тiло брехнi (Сукупність брехні) / Body of Lies (2008) 1080p [Open Matte] 2xUkr/Eng | Sub Eng

Нові коментарі

Нова тема   Відповісти
Автор Повідомлення
Anonymous 







2018-05-18 18:40  
Тiло брехнi / Сукупність брехні / Body of Lies (2008) 1080p [Open Matte] 2xUkr/Eng | Sub Eng

Тiло брехнi (Сукупність брехні) / Body of Lies (2008) 1080p [Open Matte] 2xUkr/Eng | Sub Eng


Жанр: екшн, драма, трилер
Країна: США, Велика Британія



Кінокомпанія: Scott Free Productions, De Line Pictures / Warner Bros. Pictures
Режисер: Рідлі Скотт
Актори: Леонардо Ді Капріо / Leonardo Di Caprio, Рассел Кроу / Russell Crowe, Марк Стронг / Mark Strong, Оскар Айзек / Oscar Isaac, Алон Абутбул / Alon Abutbul та інші

Сюжет:
ЦРУ полює на керівника серії терористичних атак. Роджер Ферріс є агентом національної розвідки, він переміщається по всьому світу, намагаючись запобігти будь-яким небажаним подіям. Око в небі, супутник, спостерігає за ним. На іншому кінці цього зв'язку ветеран ЦРУ Ед Хоффман, що відслідковує події здалеку.
Чим ближче підбирається Ферріс до своєї мети, тим виразніше розуміє, що довіра - це одночасно й небезпечна штука, і те єдине, що дозволить йому залишитися в живих.


Тривалість: 02:08:29
Якість: 1080p [Open Matte] [Cinemax & Amazon Video]
Відео:
кодек:
розмір кадру: 1920 x 1080
бітрейт: 12,8 Мб/с

Аудіо # 1:
мова: українська
переклад: професійний дубльований
кодек: 5.1
бітрейт: 448 кб/с
Інформація про озвучення
Фільм дубльовано компанією CineType
Переклад: Олександра Чайки
Режисер дубляжу: Костянтин Лінартович
Звукоінженер: Олександр Мостовенко
Ролі дублювали: Іван Розін, Євген Пашин, Ірина Ткаленко, Станіслав Боклан, Василь Мазур, Олександр Кобзар, Григорій Герман, Петро Сова, Лері — Дмитро Завадський та інші.
Аудіо # 2:
мова: українська
переклад: багатоголосий закадровий
кодек: 2.0
бітрейт: 192 кб/с

Аудіо # 3: (Blu-ray)
мова: англійська
переклад: оригінал
кодек: 5.1
бітрейт: 1510 кб/с

Аудіо # 4: (Коментарі)
мова: англійська
переклад: оригінал
кодек: 2.0
бітрейт: 256 кб/с

Субтитри # 1: (форсовані)
мова: українська
тип: програмні (м'які)
формат: *.srt

Субтитри # 2:
мова: англійська
тип: програмні (м'які)
формат: *.srt

Субтитри # 3: (SDH)
мова: англійська
тип: програмні (м'які)
формат: *.srt
Info

General
Unique ID : 13189426661643439496446305637895499494 (0x9EC30F0E3F17485E45F9B20F123EEE6)
Format :
Format version : Version 4 / Version 2
File size : 13.6 GiB
Duration : 2 h 8 min
Overall bit rate mode : Variable
Overall bit rate : 15.2 Mb/s
Movie name : Тiло брехнi (Сукупність брехні) / Body of Lies (2008) [Open Matte] [Cinemax & Amazon] 1080p [2xUkr.Eng Sub.Ukr.Eng] [Hurtom]
Encoded date : UTC 2018-05-18 15:13:13
Writing application : v21.0.0 ('Tardigrades Will Inherit The Earth') 64-bit
Writing library : libebml v1.3.5 + v1.4.8
Cover : Yes
Attachments : Cover.jpg

Video
ID : 1
Format : AVC
Format/Info : Advanced Video Codec
Format profile : [email protected]
Format settings : CABAC / 4 Ref Frames
Format settings, CABAC : Yes
Format settings, RefFrames : 4 frames
Codec ID : V_MPEG4/ISO/AVC
Duration : 2 h 8 min
Bit rate mode : Variable
Bit rate : 12.8 Mb/s
Maximum bit rate : 15.0 Mb/s
Width : 1 920 pixels
Height : 1 080 pixels
Display aspect ratio : 16:9
Frame rate mode : Constant
Frame rate : 23.976 (24000/1001) FPS
Color space : YUV
Chroma subsampling : 4:2:0
Bit depth : 8 bits
Scan type : Progressive
Bits/(Pixel*Frame) : 0.257
Stream size : 11.5 GiB (84%)
Title : Body of Lies (2008) [Open Matte] [Cinemax & Amazon] 1080p [2xUkr.Eng Sub.Ukr.Eng] [Hurtom]
Language : English
Default : Yes
Forced : No
Color range : Limited
Color primaries : BT.709
Transfer characteristics : BT.709
Matrix coefficients : BT.709

Audio #1
ID : 2
Format : AC-3
Format/Info : Audio Coding 3
Codec ID : A_AC3
Duration : 2 h 8 min
Bit rate mode : Constant
Bit rate : 448 kb/s
Channel(s) : 6 channels
Channel positions : Front: L C R, Side: L R, LFE
Sampling rate : 48.0 kHz
Frame rate : 31.250 FPS (1536 SPF)
Bit depth : 16 bits
Compression mode : Lossy
Stream size : 412 MiB (3%)
Title : DUB | Blu-ray (Studio ''CineType'') | 5.1 | 448 kbps
Language : Ukrainian
Service kind : Complete Main
Default : Yes
Forced : No

Audio #2
ID : 3
Format : AC-3
Format/Info : Audio Coding 3
Codec ID : A_AC3
Duration : 2 h 8 min
Bit rate mode : Constant
Bit rate : 192 kb/s
Channel(s) : 2 channels
Channel positions : Front: L R
Sampling rate : 48.0 kHz
Frame rate : 31.250 FPS (1536 SPF)
Bit depth : 16 bits
Compression mode : Lossy
Stream size : 176 MiB (1%)
Title : MVO | Inter | 2.0 | 192 kbps
Language : Ukrainian
Service kind : Complete Main
Default : No
Forced : No

Audio #3
ID : 4
Format :
Format/Info : Digital Theater Systems
Codec ID : A_DTS
Duration : 2 h 8 min
Bit rate mode : Constant
Bit rate : 1 510 kb/s
Channel(s) : 6 channels
Channel positions : Front: L C R, Side: L R, LFE
Sampling rate : 48.0 kHz
Frame rate : 93.750 FPS (512 SPF)
Bit depth : 24 bits
Compression mode : Lossy
Stream size : 1.36 GiB (10%)
Title : Original
Language : English
Default : No
Forced : No

Audio #4
ID : 5
Format : AC-3
Format/Info : Audio Coding 3
Codec ID : A_AC3
Duration : 2 h 8 min
Bit rate mode : Constant
Bit rate : 256 kb/s
Channel(s) : 2 channels
Channel positions : Front: L R
Sampling rate : 48.0 kHz
Frame rate : 31.250 FPS (1536 SPF)
Bit depth : 16 bits
Compression mode : Lossy
Stream size : 235 MiB (2%)
Title : Original (Commentary)
Language : English
Service kind : Complete Main
Default : No
Forced : No

Text #1
ID : 6
Format : UTF-8
Codec ID : S_TEXT/UTF8
Codec ID/Info : UTF-8 Plain Text
Duration : 2 h 1 min
Bit rate : 6 b/s
Count of elements : 136
Stream size : 6.18 KiB (0%)
Title : Full
Language : Ukrainian
Default : No
Forced : No

Text #2
ID : 7
Format : UTF-8
Codec ID : S_TEXT/UTF8
Codec ID/Info : UTF-8 Plain Text
Duration : 2 h 0 min
Bit rate : 67 b/s
Count of elements : 1488
Stream size : 59.3 KiB (0%)
Title : Original
Language : English
Default : No
Forced : No

Text #3
ID : 8
Format : UTF-8
Codec ID : S_TEXT/UTF8
Codec ID/Info : UTF-8 Plain Text
Duration : 2 h 0 min
Bit rate : 71 b/s
Count of elements : 1726
Stream size : 63.3 KiB (0%)
Title : Original (SDH)
Language : English
Default : No
Forced : No
Скріншоти












Blu-ray vs Open Matte




Джерело: &
Особиста оцінка: 0 - не дивився
Подяки:
- за доріжку №1 п.Xshot;
- за запис з ТБ №2 п.MAKAPOHHIK;
- за опис та синхронізацію під п.patriot2305;
- за відео та синхронізацію під п.maksnew (блубірд)

R - рейтинг стрічки, встановлений Американською асоціацією кінокомпаній

MPAA, англ. Motion Picture Association of America - Американська асоціація кінокомпаній

Рейтинг R — Restricted
Підлітки до 18 років допускаються на фільм тільки у супроводі одного з батьків, або їхнього законного представника.

Обмеження — до 18 років потрібний супровід одного з батьків або дорослого опікуна (вік може змінюватися в деяких регіонах). Даний рейтинг показує, що оціночна комісія вирішила, що деякий матеріал цього фільму призначається для дорослих. Батьки повинні більше дізнатися про фільм перш, ніж узяти на його перегляд дітей. Рейтинг R також може бути призначений через використовувану у фільмі мову, теми насильства, сексу або зображення вживання наркотиків.


Не забуваємо дякувати!


 Трекер:    Зареєстрований   

Завантажити / скачати фільм українською



відео для новачків



 Зареєстрований:   2018-05-18 18:51
 Розмір:   13.64 GB 
 Оцінка фільму:   9.2/10 (Голосів: 10)
   
kryk-v.ya. 
VIP


З нами з: 14.02.14
Востаннє: 15.09.19
Повідомлень: 1584

2018-05-22 12:43  
дуже класний фільм.
exitvray 
Свій


З нами з: 17.02.13
Востаннє: 14.09.19
Повідомлень: 55

2018-05-24 00:33  
Норм 8,7/10
Ваш часовий пояс: GMT + 2 Години

Нова тема   Відповісти