Бійтесь ходячих мерців (Сезон 4, Серії 1-6 з 16) / Fear the Walking Dead (Season 4, Episodes 1-6 of 16) (2018) AVC

Нові коментарі

Нова тема   Відповісти
Автор Повідомлення
Anonymous 







2018-05-18 15:49  
Бійтесь ходячих мерців (Сезон 4, Серії 1-6 з 16) / Fear the Walking Dead (Season 4, Episodes 1-6 of 16) (2018) AVC



Жанр: драма, жахи, трилер
Країна: США


Кінокомпанія / телеканал: AMC
Режисер: Адам Девідсон, Карі Скогланд, Стефан Шварц
Актори/ролі озвучують: Кім Діккенс, Кліф Кертіс, Френк Діллейн, Алісія Дебнем-Кері, Елізабет Родрігес, Мерседес Масон, Лоренцо Джеймс Хенрі, Рубен Бладес, Колман Домінго, Патрісія Реєс Спіндола

Сюжет:
Дія розгортається в недалекому майбутньому. Територія колись пахучого Лос-Анджелеса стала зоною сущого кошмару. До апокаліпсису призвело поява величезної кількості бродячих небіжчиків. Ці моторошні створіння стали результатом впливу новітнього вірусу, не відомого раніше науці. Засобів боротьби з напастю поки немає. Одні змирилися з гіркою долею і перетворилися в зомбі або загинули в жахливих муках. Інші роблять відчайдушні спроби вижити в цьому пеклі. Від колишнього райського куточка планети не залишилося і сліду. Небагато вижили з гіркою іронією згадують кращі часи, усвідомлюючи, настільки банальними були колишні проблеми.

Обставини звели разом Тревіса Манаву, колишнього вчителя, що перебуває в розлученні, і Медісон Кларк, жінку, що самостійно займалася вихованням двох дітей. Матері-одиначці завжди було непросто. Син і дочка виявилися проблемними. Ешлі сповнена амбіцій і не бажає вгамуватися, незважаючи на виниклі обставини і смертельний ризик. У Ніка справи набагато гірші. Раніше він пристрастився до вживання наркотичних речовин, і тепер робить спроби позбутися від залежності. Таким різним людям необхідно триматися разом і шукати шляхи до порозуміння. Лише в цьому випадку у них залишається надія на спасіння. Становище в місті погіршується щодня.


Тривалість: 1 серія: 45хв (цілком серій: 6 з 16)
Перелік серій
Fear the Walking Dead. Season 4, Episode 1. What's Your Story?
Fear the Walking Dead. Season 4, Episode 2. Another Day in the Diamond
Fear the Walking Dead. Season 4, Episode 3. Good Out Here
Fear the Walking Dead. Season 4, Episode 4. Buried
Fear the Walking Dead. Season 4, Episode 5. Laura
Fear the Walking Dead. Season 4, Episode 6. Just in Case
Якість:
Відео:
кодек:
розмір кадру: 960 х 540
бітрейт: 1200 - 1800 кб/с

Аудіо:
мова: українська
переклад: багатоголосий закадровий
кодек: 2.0
бітрейт: 192 кб/с

Джерело озвучення:
Скріншоти






МІ
Complete name : E:\Fear the Walking Dead(Season 4)\S04E01.
Format :
Format version : Version 4 / Version 2
File size : 713 MiB
Duration : 49 min 8 s
Overall bit rate : 2 028 kb/s
Movie name : Fear the Walking Dead S04E01 ( 1080p; MVO LostFilm, orig; Sub en)
Encoded date : UTC 2018-05-15 06:28:05
Writing application : v22.0.0 ('At The End Of The World') 64-bit
Writing library : libebml v1.3.5 + v1.4.8

Video
ID : 1
Format : AVC
Format/Info : Advanced Video Codec
Format profile : [email protected]
Format settings, CABAC : Yes
Format settings, RefFrames : 10 frames
Codec ID : V_MPEG4/ISO/AVC
Duration : 49 min 8 s
Bit rate : 1 834 kb/s
Width : 960 pixels
Height : 540 pixels
Display aspect ratio : 16:9
Frame rate mode : Constant
Frame rate : 23.976 (24000/1001) FPS
Color space : YUV
Chroma subsampling : 4:2:0
Bit depth : 8 bits
Scan type : Progressive
Bits/(Pixel*Frame) : 0.148
Stream size : 645 MiB (90%)
Writing library : core 146 r2555 0c21480
Encoding settings : cabac=1 / ref=10 / deblock=1:0:0 / analyse=0x3:0x133 / me=umh / subme=9 / psy=1 / psy_rd=1.00:0.00 / mixed_ref=1 / me_range=16 / chroma_me=1 / trellis=1 / 8x8dct=1 / cqm=0 / deadzone=21,11 / fast_pskip=1 / chroma_qp_offset=-2 / threads=3 / lookahead_threads=1 / sliced_threads=0 / nr=0 / decimate=1 / interlaced=0 / bluray_compat=0 / constrained_intra=0 / bframes=4 / b_pyramid=2 / b_adapt=1 / b_bias=0 / direct=3 / weightb=1 / open_gop=0 / weightp=2 / keyint=250 / keyint_min=25 / scenecut=40 / intra_refresh=0 / rc_lookahead=40 / rc=crf / mbtree=1 / crf=19.0 / qcomp=0.60 / qpmin=10 / qpmax=51 / qpstep=4 / ip_ratio=1.40 / aq=1:1.00
Default : Yes
Forced : No

Audio
ID : 2
Format : AC-3
Format/Info : Audio Coding 3
Format settings, Endianness : Big
Codec ID : A_AC3
Duration : 49 min 8 s
Bit rate mode : Constant
Bit rate : 192 kb/s
Channel(s) : 2 channels
Channel positions : Front: L R
Sampling rate : 48.0 kHz
Frame rate : 31.250 FPS (1536 SPF)
Bit depth : 16 bits
Compression mode : Lossy
Stream size : 67.5 MiB (9%)
Title : Багатоголосий [AMC]
Language : Ukrainian
Service kind : Complete Main
Default : Yes
Forced : No
Подяки: пану з цієї роздачі за синхронізацію та oster_ok за постер.
Джерело:
Особиста оцінка: 8 - мені сподобалосяЪ
Дата останнього оновлення 22.05.18 - додано 6у серію.


Бронзовий реліз (на рейтинг впливає 75% завантаженого)
 Трекер:    Зареєстрований   

Завантажити / скачати серіал українською



відео для новачків



 Зареєстрований:   2018-05-22 16:01
 Розмір:   3.22 GB 
 Оцінка серіалу:   10/10 (Голосів: 3)
   
Ваш часовий пояс: GMT + 2 Години

Нова тема   Відповісти