Поліцейський з Беверлі-Хіллз 2 / Beverly Hills Cop II (1987) 1080p [Open Matte] Ukr/Eng | Sub Eng

Нові коментарі

Нова тема   Відповісти
Останній раз роздавалося MacOle (2018-05-26)
Автор Повідомлення
Anonymous 







2018-05-18 13:37  
Поліцейський з Беверлі-Хіллз 2 / Beverly Hills Cop II (1987) 1080p [Open Matte] Ukr/Eng | Sub Eng

Поліцейський з Беверлі-Хіллз 2 / Beverly Hills Cop II (1987) 1080p [Open Matte] Ukr/Eng | Sub Eng
Український постер від realNitro:



Жанр: екшн, комедія, кримінальний, трилер
Країна: США



Кінокомпанія: Paramount Pictures, Don Simpson/Jerry Bruckheimer Films, Eddie Murphy Productions
Режисер: Тоні Скот / Tony Scott
Актори: Едді Мерфі / Eddie Murphy, Джадж Райнголд / Judge Reinhold, Джон Ештон / John Ashton, Юрґен Прокнов / Jürgen Prochnow, Ронні Кокс / Ronny Cox, Бріджит Нільсен / Brigitte Nielsen, Ален Ґарфілд / Allen Garfield та інші

Сюжет:
Розступіться, він повернувся - і вляпався туди, куди не слід. Він працює під прикриттям у заможній та ексклюзивній Каліфорнії. За допомогою улюбленої зброї - своєї нестримної пельки, що знищує не менше ворогів аніж автоматична зброя, він переслідує банди міжнародних торговців зброєю.


Тривалість: 01:43:09
Якість: 1080p [Open Matte] [Starz & Amazon Video]
Відео:
кодек:
розмір кадру: 1920 x 1080
бітрейт: 14,1 Мб/с
примітка: іноді в правому нижньому куті з'являється лого онлайн-сервісу Starz

Аудіо # 1: | |
мова: українська
переклад: багатоголосий закадровий
кодек: 2.0
бітрейт: 192 кб/с

Аудіо # 2: (Blu-ray)
мова: англійська
переклад: оригінал
кодек: 5.1
бітрейт: 1510 кб/с

Субтитри: (SDH)
мова: англійська
тип: пререндерні
формат: *.pgs
Info

General
Unique ID : 28724374770627104421606869004261599056 (0x159C1D0489120FE28F77296E3BA92750)
Format :
Format version : Version 4 / Version 2
File size : 11.4 GiB
Duration : 1 h 43 min
Overall bit rate mode : Variable
Overall bit rate : 15.9 Mb/s
Movie name : Поліцейський з Беверлі-Хіллз 2 / Beverly Hills Cop II (1987) [Open Matte] [Starz & Amazon] 1080p [Ukr.Eng Sub.Eng] [Hurtom]
Encoded date : UTC 2018-05-18 22:00:45
Writing application : v21.0.0 ('Tardigrades Will Inherit The Earth') 64-bit
Writing library : libebml v1.3.5 + v1.4.8
Cover : Yes
Attachments : Cover.jpg

Video
ID : 1
Format : AVC
Format/Info : Advanced Video Codec
Format profile : [email protected]
Format settings : CABAC / 4 Ref Frames
Format settings, CABAC : Yes
Format settings, RefFrames : 4 frames
Codec ID : V_MPEG4/ISO/AVC
Duration : 1 h 43 min
Bit rate mode : Variable
Bit rate : 14.1 Mb/s
Maximum bit rate : 15.0 Mb/s
Width : 1 920 pixels
Height : 1 080 pixels
Display aspect ratio : 16:9
Frame rate mode : Constant
Frame rate : 23.976 (24000/1001) FPS
Color space : YUV
Chroma subsampling : 4:2:0
Bit depth : 8 bits
Scan type : Progressive
Bits/(Pixel*Frame) : 0.285
Stream size : 10.2 GiB (89%)
Title : Beverly Hills Cop II (1987) [Open Matte] [Starz & Amazon] 1080p [Ukr.Eng Sub.Eng] [Hurtom]
Language : English
Default : Yes
Forced : No
Color range : Limited
Color primaries : BT.709
Transfer characteristics : BT.709
Matrix coefficients : BT.709

Audio #1
ID : 2
Format : AC-3
Format/Info : Audio Coding 3
Codec ID : A_AC3
Duration : 1 h 43 min
Bit rate mode : Constant
Bit rate : 192 kb/s
Channel(s) : 2 channels
Channel positions : Front: L R
Sampling rate : 48.0 kHz
Frame rate : 31.250 FPS (1536 SPF)
Bit depth : 16 bits
Compression mode : Lossy
Stream size : 142 MiB (1%)
Title : MVO | ICTV / Inter / K1 | 2.0 | 192 kbps
Language : Ukrainian
Service kind : Complete Main
Default : Yes
Forced : No

Audio #2
ID : 3
Format :
Format/Info : Digital Theater Systems
Codec ID : A_DTS
Duration : 1 h 43 min
Bit rate mode : Constant
Bit rate : 1 510 kb/s
Channel(s) : 6 channels
Channel positions : Front: L C R, Side: L R, LFE
Sampling rate : 48.0 kHz
Frame rate : 93.750 FPS (512 SPF)
Bit depth : 24 bits
Compression mode : Lossy
Stream size : 1.09 GiB (10%)
Title : Original
Language : English
Default : No
Forced : No

Text
ID : 4
Format : PGS
Muxing mode : zlib
Codec ID : S_HDMV/PGS
Codec ID/Info : Picture based subtitle format used on BDs/HD-DVDs
Duration : 1 h 42 min
Bit rate : 66.2 kb/s
Count of elements : 2816
Stream size : 48.4 MiB (0%)
Title : Original (SDH)
Language : English
Default : No
Forced : No
Скріншоти












Blu-ray vs Open Matte



Джерело: &
Особиста оцінка: 10 - без зайвих вагань рекомендую всім!
Подяки:
- за запис з ТБ п.Sando7, п.OlegCena, п.POMEO, п.Merdiff та п.slavik_v_z;
- за опис та синхронізацію під п.patriot2305
- за відео та синхронізацію під п.maksnew (блубірд)

R - рейтинг стрічки, встановлений Американською асоціацією кінокомпаній

MPAA, англ. Motion Picture Association of America - Американська асоціація кінокомпаній

Рейтинг R — Restricted
Підлітки до 18 років допускаються на фільм тільки у супроводі одного з батьків, або їхнього законного представника.

Обмеження — до 18 років потрібний супровід одного з батьків або дорослого опікуна (вік може змінюватися в деяких регіонах). Даний рейтинг показує, що оціночна комісія вирішила, що деякий матеріал цього фільму призначається для дорослих. Батьки повинні більше дізнатися про фільм перш, ніж узяти на його перегляд дітей. Рейтинг R також може бути призначений через використовувану у фільмі мову, теми насильства, сексу або зображення вживання наркотиків.


Не забуваємо дякувати!




Срібний реліз (на рейтинг впливає 50% завантаженого)
 Трекер:    Зареєстрований   

Завантажити / скачати фільм українською



відео для новачків



 Зареєстрований:   2018-05-19 01:21
 Розмір:   11.44 GB 
 Оцінка фільму:   10/10 (Голосів: 1)
   
Anonymous 







2018-05-19 01:24  
Змінив назву на правильну у файлі і торренті та перезалив торрент.
було: Beverly Hills Cop (1987), замінив на Beverly Hills Cop II (1987)
Прохання перезавантажити торрент

Ваш часовий пояс: GMT + 2 Години

Нова тема   Відповісти