Лего Ніндзяго: Майстри Спінжитсу. Сини Гармадону / LEGO Ninjago: Masters of Spinjitzu. Sons of Garmadon (Сезон 8) (2018) 1080p Ukr/Eng | sub Eng — HD українською

Лего Ніндзяго: Майстри Спінжитсу. Сини Гармадону / LEGO Ninjago: Masters of Spinjitzu. Sons of Garmadon (Сезон 8) (2018) 1080p Ukr/Eng | sub Eng

Нові коментарі

Нова тема   Відповісти
Автор Повідомлення
sergiyko.5 
VIP


З нами з: 25.02.16
Востаннє: 14.08.18
Повідомлень: 1642

2018-05-17 22:20  
Лего Ніндзяго: Майстри Спінжитсу. Сини Гармадону / LEGO Ninjago: Masters of Spinjitzu. Sons of Garmadon (Сезон 8) (2018) 1080p Ukr/Eng | sub Eng


Лего Ніндзяго: Майстри Спінжитсу. Сини Гармадону / LEGO Ninjago: Masters of Spinjitzu. Sons of Garmadon (Сезон 8) (2018) 1080p Ukr/Eng | sub Eng

Жанр: дитячий, пригоди, фентезі
Країна: Данія, Сингапур, Канада, США
Кінокомпанія: LEGO, Wil Film

Режисер: Пітер Хауснер, Мартін Скоу

Сюжет:
Майстри бойових мистецтв, кожен з яких володіє унікальним видом зброї та особливими здібностями. Вони здатні здолати будь-якого ворога. Зі світовим злом постійно борються Кай, Джей, Зейн, Ллойд, Нія та їхній духовний лідер і вчитель – Сенсей Ву. Кай - стрімко атакує, його зброя меч. У Джея улюблена зброя нунчаки , він швидкий немов блискавка. Хитрість та спостережливість сильні сторони Зейна, користується метальними зірочками. Ллойд – командир групи, завжди діє на грані можливостей. У Ніє найкраще розвинена інтуїція, проте вона ще й добре володіє вогняними кинджалами. Сенсей Ву – досконалість у всьому, яку намагається передати учням. Хіба всесвітнє зло має шанси на перемогу?

Через рік після втрати Майстра Ву в битві з Руками Часу, в Нью-Ніндзяґо сіті з'являється секретна організація "Сини Гармадона", які хочуть відродити Лорда Гармадона за допомогою Оні-Масок. Ніндзя, на чолі з Ллойдом, не втрачають надію знайти свого Майстра, але у них з'являється нова мета - захистити Королівську Сім'ю та зупинити групу байкерів, які відомі як Сини Гармадона, щоб вони не відродили Лорда Гармадона.




Тривалість: 1 серія: 22:00 (цілком серій: 10)
Якість:

Відео: кодек: розмір кадру: 1920 х 1080 бітрейт: 4500 кб/с
Аудіо #1: мова: українська переклад: професійний дубльований кодек: 2.0 бітрейт: 192 кб/с
Джерело озвучення:
Аудіо #2: мова: англійська переклад: оригінал кодек: 2.0 бітрейт: 160 кб/с
Субтитри: мова: англійська тип: програмні (м’які) формат: *.srt
Перелік серій

75. Маска обману
76. Принцеса нечупара
77. Оні та дракон
78. Змія Ягуар
79. Крик мерця
80. Квайт Ван
81. Гра масок
82. Жах наступає
83. Справжній потенціал
84. Велика проблема, маленьке Ніндзяго
Про файл:
General
Unique ID : 73531499834102866815775387585018736943 (0x3751A6D8579C0FEE1699963636E6312F)
Complete name : E:\MULTFILMS\LEGO Ninjago Masters of Spinjitzu S08 1080p\LEGO.NinjaGo.Masters.of.Spinjitzu.S08E01.The.Mask.of.Deception.1080p..Ukr.Eng.
Format :
Format version : Version 4 / Version 2
File size : 747 MiB
Duration : 22 min 2 s
Overall bit rate : 4 736 kb/s
Movie name : LEGO Ninjago Masters of Spinjitzu S08 by sergiyko
Encoded date : UTC 2018-05-17 18:45:30
Writing application : v23.0.0 ('The Bride Said No') 64-bit
Writing library : libebml v1.3.6 + v1.4.9

Video
ID : 1
Format : AVC
Format/Info : Advanced Video Codec
Format profile : [email protected]
Format settings, CABAC : Yes
Format settings, ReFrames : 4 frames
Format settings, GOP : M=3, N=60
Codec ID : V_MPEG4/ISO/AVC
Duration : 22 min 2 s
Bit rate : 4 500 kb/s
Width : 1 920 pixels
Height : 1 080 pixels
Display aspect ratio : 16:9
Frame rate mode : Constant
Frame rate : 29.970 (30000/1001) FPS
Original frame rate : 29.970 (29970/1000) FPS
Color space : YUV
Chroma subsampling : 4:2:0
Bit depth : 8 bits
Scan type : Progressive
Bits/(Pixel*Frame) : 0.072
Stream size : 696 MiB (93%)
Title : 75. Маска обману - The Mask of Deception
Writing library : core 148
Encoding settings : cabac=1 / ref=1 / deblock=1:0:0 / analyse=0x3:0x113 / me=hex / subme=2 / psy=1 / psy_rd=1.00:0.00 / mixed_ref=0 / me_range=16 / chroma_me=1 / trellis=0 / 8x8dct=1 / cqm=0 / deadzone=21,11 / fast_pskip=1 / chroma_qp_offset=0 / threads=34 / lookahead_threads=8 / sliced_threads=0 / nr=0 / decimate=1 / interlaced=0 / bluray_compat=0 / constrained_intra=0 / bframes=2 / b_pyramid=2 / b_adapt=0 / b_bias=0 / direct=1 / weightb=1 / open_gop=0 / weightp=1 / keyint=60 / keyint_min=6 / scenecut=0 / intra_refresh=0 / rc_lookahead=10 / rc=2pass / mbtree=1 / bitrate=4500 / ratetol=1.0 / qcomp=0.60 / qpmin=0 / qpmax=69 / qpstep=4 / cplxblur=20.0 / qblur=0.5 / vbv_maxrate=4500 / vbv_bufsize=4500 / nal_hrd=none / filler=0 / ip_ratio=1.40 / aq=1:1.00
Language : English
Default : Yes
Forced : No

Audio #1
ID : 2
Format : AC-3
Format/Info : Audio Coding 3
Mode extension : CM (complete main)
Format settings, Endianness : Big
Codec ID : A_AC3
Duration : 22 min 2 s
Bit rate mode : Constant
Bit rate : 192 kb/s
Channel(s) : 2 channels
Channel positions : Front: L R
Sampling rate : 48.0 kHz
Frame rate : 31.250 FPS (1536 spf)
Bit depth : 16 bits
Compression mode : Lossy
Stream size : 30.3 MiB (4%)
Title : DUB | Плюс Плюс
Language : Ukrainian
Default : Yes
Forced : Yes

Audio #2
ID : 3
Format :
Format/Info : Advanced Audio Codec
Format profile : LC
Codec ID : A_AAC
Duration : 22 min 2 s
Bit rate : 126 kb/s
Channel(s) : 2 channels
Channel positions : Front: L R
Sampling rate : 44.1 kHz
Frame rate : 43.066 FPS (1024 spf)
Compression mode : Lossy
Stream size : 19.8 MiB (3%)
Title : Original AAC2.0
Language : English
Default : No
Forced : No

Text
ID : 4
Format : UTF-8
Codec ID : S_TEXT/UTF8
Codec ID/Info : UTF-8 Plain Text
Duration : 21 min 49 s
Bit rate : 90 b/s
Count of elements : 354
Stream size : 14.4 KiB (0%)
Title : Closed Captions
Language : English
Default : No
Forced : No
Скріншоти:




Автор запису/ріпу: sergiyko


Бронзовий реліз (на рейтинг впливає 75% завантаженого)
 Трекер:    Зареєстрований   

Завантажити / скачати мультфільм українською



відео для новачків



 Зареєстрований:   2018-05-17 22:20
 Розмір:   7.3 GB 
 Оцінка мультсеріалу:   10/10 (Голосів: 5)
   
santaklava 
Частий відвідувач


З нами з: 12.10.09
Востаннє: 08.08.18
Повідомлень: 39

2018-06-01 17:03  
дякую
діти в захваті

KhmiL 
Новенький


З нами з: 09.07.14
Востаннє: 14.08.18
Повідомлень: 2

2018-06-04 16:17  
Дякую
vaskavich 
Новенький


З нами з: 12.06.18
Востаннє: 12.08.18
Повідомлень: 1

2018-06-12 21:36  
Дякую
Ваш часовий пояс: GMT + 2 Години

Нова тема   Відповісти