Колекцiонер 2 / The Collection (2012) 1080p Ukr/Eng | Sub Eng

Нові коментарі

Нова тема   Відповісти
Автор Повідомлення
boroznaya 
Попереджень: 1
Попереджень: 1 


З нами з: 02.11.12
Востаннє: 17.10.18
Повідомлень: 2967

2018-05-17 18:52  
Колекцiонер 2 / The Collection (2012) 1080p Ukr/Eng | Sub Eng

Колекцiонер 2 / The Collection (2012) 1080p Ukr/Eng | Sub Eng


Жанр: жахи, бойовик, трилер
Країна: США



Кінокомпанія: LD Entertainment, Fortress Features
Режисер: Маркус Данстен
Актори: Джош Стюарт, Емма Фітцпатрік, Крістофер МакДональд, Лі Терґесен, Тім Ґріффін, Андре Ройо, Рендолл Арчер, Шеннон Кейн, Брендон Молале, Ерін Вей

Сюжет:
Колишньому ведмежатникові Аркіну чудесним чином вдалося вибратися з пасток, розставлених по дому загадковим маніяком Колекціонером.
Аркін був впевнений, що він ніколи в житті більше не зустрінеться з Колекціонером, але доля розпоряджається інакше.


Тривалість: 01:21:59
Якість: 1080p
Відео:
кодек:
розмір кадру: 1920x818
бітрейт: 10 Мб/с

Аудіо # 1:
мова: українська
переклад: багатоголосий закадровий
кодек: 2.0
бітрейт: 192 кб/с

Аудіо # 2:
мова: англійська
переклад: оригінал
кодек: 5.1
бітрейт: 1510 кб/с

Субтитри: [FULL]
мова: англійська
тип: програмні (м'які)
формат: *.srt

Субтитри: [SDH]
мова: англійська
тип: програмні (м'які)
формат: *.srt
Info
D:\Фільми\Готові релізи\The Collection (2012) [Ukr, Eng, sub. 2xEng] 1080p [Hurtom].
General
Unique ID : 156672346413803529259920228082249683748 (0x75DDFF103DD226EBC1976270E0A0D324)
Complete name : D:\Фільми\Готові релізи\The Collection (2012) [Ukr, Eng, sub. 2xEng] 1080p [Hurtom].
Format :
Format version : Version 4 / Version 2
File size : 6.70 GiB
Duration : 1h 21mn
Overall bit rate : 11.7 Mbps
Encoded date : UTC 2018-05-17 13:35:04
Writing application : v20.0.0 ('I Am The Sun') 64-bit
Writing library : libebml v1.3.5 + v1.4.8
DURATION : 01:21:58.912000000
NUMBER_OF_FRAMES : 153716
NUMBER_OF_BYTES : 118053888
_STATISTICS_WRITING_APP : v20.0.0 ('I Am The Sun') 64-bit
_STATISTICS_WRITING_DATE_UTC : 2018-05-17 13:35:04
_STATISTICS_TAGS : BPS DURATION NUMBER_OF_FRAMES NUMBER_OF_BYTES

Video #1
ID : 1
Format : AVC
Format/Info : Advanced Video Codec
Format profile : [email protected]
Format settings, CABAC : Yes
Format settings, ReFrames : 5 frames
Codec ID : V_MPEG4/ISO/AVC
Duration : 1h 21mn
Bit rate : 10 000 Kbps
Width : 1 920 pixels
Height : 818 pixels
Display aspect ratio : 2.35:1
Frame rate : 23.976 fps
Color space : YUV
Chroma subsampling : 4:2:0
Bit depth : 8 bits
Scan type : Progressive
Bits/(Pixel*Frame) : 0.266
Stream size : 5.59 GiB (83%)
Writing library : core 122 r2184 5c85e0a
Encoding settings : cabac=1 / ref=5 / deblock=1:-3:-3 / analyse=0x3:0x113 / me=umh / subme=11 / psy=1 / psy_rd=1.10:0.00 / mixed_ref=1 / me_range=24 / chroma_me=1 / trellis=2 / 8x8dct=1 / cqm=0 / deadzone=21,11 / fast_pskip=1 / chroma_qp_offset=-2 / threads=6 / sliced_threads=0 / nr=0 / decimate=1 / interlaced=0 / bluray_compat=0 / constrained_intra=0 / bframes=9 / b_pyramid=2 / b_adapt=2 / b_bias=0 / direct=3 / weightb=1 / open_gop=0 / weightp=2 / keyint=250 / keyint_min=23 / scenecut=40 / intra_refresh=0 / rc_lookahead=60 / rc=2pass / mbtree=1 / bitrate=10000 / ratetol=1.0 / qcomp=0.60 / qpmin=0 / qpmax=69 / qpstep=4 / cplxblur=20.0 / qblur=0.5 / ip_ratio=1.40 / aq=1:0.90
Language : English
Default : Yes
Forced : No
DURATION : 01:21:58.873000000
NUMBER_OF_FRAMES : 117935
NUMBER_OF_BYTES : 6146031112
_STATISTICS_WRITING_APP : v20.0.0 ('I Am The Sun') 64-bit
_STATISTICS_WRITING_DATE_UTC : 2018-05-17 13:35:04
_STATISTICS_TAGS : BPS DURATION NUMBER_OF_FRAMES NUMBER_OF_BYTES

Audio #2
ID : 2
Format : AC-3
Format/Info : Audio Coding 3
Mode extension : CM (complete main)
Codec ID : A_AC3
Duration : 1h 21mn
Bit rate mode : Constant
Bit rate : 192 Kbps
Channel(s) : 2 channels
Channel positions : Front: L R
Sampling rate : 48.0 KHz
Bit depth : 16 bits
Compression mode : Lossy
Stream size : 113 MiB (2%)
Title : Багатоголосий закадровий, 1+1
Language : Ukrainian
Default : Yes
Forced : No

Audio #3
ID : 3
Format :
Format/Info : Digital Theater Systems
Codec ID : A_DTS
Duration : 1h 21mn
Bit rate mode : Constant
Bit rate : 1 510 Kbps
Channel(s) : 6 channels
Channel positions : Front: L C R, Side: L R, LFE
Sampling rate : 48.0 KHz
Bit depth : 24 bits
Compression mode : Lossy
Stream size : 885 MiB (13%)
Language : English
Default : No
Forced : No

Text #4
ID : 4
Format : UTF-8
Codec ID : S_TEXT/UTF8
Codec ID/Info : UTF-8 Plain Text
Title : FULL
Language : English
Default : No
Forced : No

Text #5
ID : 5
Format : UTF-8
Codec ID : S_TEXT/UTF8
Codec ID/Info : UTF-8 Plain Text
Title : SDH
Language : English
Default : No
Forced : No
Скріншоти




Подяка krigg070 за запис з ТБ.

Джерело: &
Особиста оцінка: 8 - мені сподобалося

Не забуваємо дякувати!


 Трекер:    Зареєстрований   

Завантажити / скачати фільм українською



відео для новачків



 Зареєстрований:   2018-05-19 16:45
 Розмір:   6.7 GB 
 Оцінка фільму:   9.3/10 (Голосів: 6)
   
boroznaya 
Попереджень: 1
Попереджень: 1 


З нами з: 02.11.12
Востаннє: 17.10.18
Повідомлень: 2967

2018-05-19 16:49  
Фільм "Колекцiонер 2" на роздачі!
Приємного перегляду!

kryk-v.ya. 
VIP


З нами з: 14.02.14
Востаннє: 19.10.18
Повідомлень: 614

2018-05-21 19:59  
глянув скріншоти і настрашився Wide grin
Ваш часовий пояс: GMT + 2 Години

Нова тема   Відповісти