Влада страху / Збирач кісток / The Bone Collector (1999) 1080p [Open Matte] 2xUkr/Eng | Sub Eng

Нові коментарі

Нова тема   Відповісти
Автор Повідомлення
boroznaya 
Попереджень: 1
Попереджень: 1 


З нами з: 02.11.12
Востаннє: 17.10.18
Повідомлень: 2967

2018-05-17 18:32  
Влада страху / Збирач кісток / The Bone Collector (1999) 1080p [Open Matte] 2xUkr/Eng | Sub Eng

Влада страху / Збирач кісток / The Bone Collector (1999) 1080p [Open Matte] 2xUkr/Eng | Sub Eng


Жанр: трилер, драма, кримінал, детектив
Країна: США



Кінокомпанія: Columbia Pictures Corporation, Universal Pictures, MELS
Режисер: Філліп Нойс
Актори: Дензел Вашинґтон, Анджеліна Джолі, Квін Латіфа, Майкл Рукер, Майк Макґлоун, Луіс Ґузман, Ліланд Орсер, Джон Бенжамін Хіккі, Боббі Каннавале, Ед О’Ніл

Сюжет:
Герої цієї драми - відомий криміналіст, автор багатьох публікацій Лінкольн Райм і початківець-поліцейський Амелія Донагі. У зв'язку з тим, що Лінкольн прикутий до лікарняного ліжка, Амелія стає його заміною під час розкриття кривавих злочинів страшного маніяка. Криміналіст намагається зрозуміти логіку дій цього злочинця-душогуба, розшифрувати сенс тих прихованих послань, які він відправляє з кожною своєю новою жертвою. Але Райм і припустити не може, що роль головного героя в диявольській книзі маніяка автор відвів саме йому ...


Тривалість: 01:57:57
Якість: 1080p [Open Matte] [Cinemax & Amazon Video]
Відео:
кодек:
розмір кадру: 1920x1080
бітрейт: 12,5 Mб/с

Аудіо # 1:
мова: українська
переклад: багатоголосий закадровий
кодек: 2.0
бітрейт: 192 кб/с
перекладено як: "Збирач кісток"

Аудіо # 2:
мова: українська
переклад: багатоголосий закадровий
кодек: 2.0
бітрейт: 192 кб/с
перекладено як: "Влада страху"
примітка: звук витягнуто з центрального каналу псевдо 5.1
Інформація про озвучення

Фільм озвучено студією "Мова" на замовлення телеканалу "Україна"
Ролі озвучили: Михайло Кришталь, Микола Говор та ще один чоловічий і один чи два жіночих
Аудіо # 3:
мова: англійська
переклад: оригінал
кодек: 5.1
бітрейт: 1510 кб/с

Субтитри:
мова: англійська
тип: програмні (м'які)
формат: *.pgs
Info
D:\Фільми\Готові релізи\The Bone Collector (1999) [2xUkr, Eng, sub. Eng] 1080p [Hurtom].
General
Unique ID : 324691167728348045299040979032544453692 (0xF4453E87DCFCC993046B061B85F9243C)
Complete name : D:\Фільми\Готові релізи\The Bone Collector (1999) [2xUkr, Eng, sub. Eng] 1080p [Hurtom].
Format :
Format version : Version 4 / Version 2
File size : 12.1 GiB
Duration : 1h 58mn
Overall bit rate mode : Variable
Overall bit rate : 14.7 Mbps
Encoded date : UTC 2018-05-17 14:29:40
Writing application : v20.0.0 ('I Am The Sun') 64-bit
Writing library : libebml v1.3.5 + v1.4.8
DURATION : 01:58:10.048000000
NUMBER_OF_FRAMES : 221564
NUMBER_OF_BYTES : 170161152
_STATISTICS_WRITING_APP : v20.0.0 ('I Am The Sun') 64-bit
_STATISTICS_WRITING_DATE_UTC : 2018-05-17 14:29:40
_STATISTICS_TAGS : BPS DURATION NUMBER_OF_FRAMES NUMBER_OF_BYTES

Video #1
ID : 1
Format : AVC
Format/Info : Advanced Video Codec
Format profile : [email protected]
Format settings, CABAC : Yes
Format settings, ReFrames : 4 frames
Codec ID : V_MPEG4/ISO/AVC
Duration : 1h 58mn
Bit rate mode : Variable
Bit rate : 12.5 Mbps
Maximum bit rate : 15.0 Mbps
Width : 1 920 pixels
Height : 1 080 pixels
Display aspect ratio : 16:9
Frame rate : 23.976 fps
Color space : YUV
Chroma subsampling : 4:2:0
Bit depth : 8 bits
Scan type : Progressive
Bits/(Pixel*Frame) : 0.251
Stream size : 10.3 GiB (85%)
Language : English
Default : Yes
Forced : No
Color primaries : BT.709-5, BT.1361, IEC 61966-2-4, SMPTE RP177
Transfer characteristics : BT.709-5, BT.1361
Matrix coefficients : BT.709-5, BT.1361, IEC 61966-2-4 709, SMPTE RP177

Audio #2
ID : 2
Format : AC-3
Format/Info : Audio Coding 3
Mode extension : CM (complete main)
Codec ID : A_AC3
Duration : 1h 58mn
Bit rate mode : Constant
Bit rate : 192 Kbps
Channel(s) : 2 channels
Channel positions : Front: L R
Sampling rate : 48.0 KHz
Bit depth : 16 bits
Compression mode : Lossy
Stream size : 162 MiB (1%)
Title : Багатоголосий закадровий, amc
Language : Ukrainian
Default : Yes
Forced : No

Audio #3
ID : 3
Format : AC-3
Format/Info : Audio Coding 3
Mode extension : CM (complete main)
Codec ID : A_AC3
Duration : 1h 58mn
Bit rate mode : Constant
Bit rate : 192 Kbps
Channel(s) : 2 channels
Channel positions : Front: L R
Sampling rate : 48.0 KHz
Bit depth : 16 bits
Compression mode : Lossy
Stream size : 162 MiB (1%)
Title : Багатоголосий закадровий, ТРК "Україна"
Language : Ukrainian
Default : No
Forced : No

Audio #4
ID : 4
Format :
Format/Info : Digital Theater Systems
Codec ID : A_DTS
Duration : 1h 58mn
Bit rate mode : Constant
Bit rate : 1 510 Kbps
Channel(s) : 6 channels
Channel positions : Front: L C R, Side: L R, LFE
Sampling rate : 48.0 KHz
Bit depth : 24 bits
Compression mode : Lossy
Stream size : 1.25 GiB (10%)
Language : English
Default : No
Forced : No

Text #5
ID : 5
Format : PGS
Muxing mode : zlib
Codec ID : S_HDMV/PGS
Codec ID/Info : The same subtitle format used on BDs/HD-DVDs
Language : English
Default : No
Forced : No
Скріншоти








Подяки:
- за запис з ТБ п.Sando7, п.Disturbed
- за опис та синхронізацію під п.taraskill1, п._oles.
R - рейтинг стрічки, встановлений Американською асоціацією кінокомпаній

MPAA, англ. Motion Picture Association of America - Американська асоціація кінокомпаній

Рейтинг R — Restricted
Підлітки до 18 років допускаються на фільм тільки у супроводі одного з батьків, або їхнього законного представника.

Обмеження — до 18 років потрібний супровід одного з батьків або дорослого опікуна (вік може змінюватися в деяких регіонах). Даний рейтинг показує, що оціночна комісія вирішила, що деякий матеріал цього фільму призначається для дорослих. Батьки повинні більше дізнатися про фільм перш, ніж узяти на його перегляд дітей. Рейтинг R також може бути призначений через використовувану у фільмі мову, теми насильства, сексу або зображення вживання наркотиків.
Джерело: &
Особиста оцінка: 8 - мені сподобалося

Не забуваємо дякувати!


Срібний реліз (на рейтинг впливає 50% завантаженого)
 Трекер:    Зареєстрований   

Завантажити / скачати фільм українською



відео для новачків



 Зареєстрований:   2018-05-19 16:51
 Розмір:   12.1 GB 
 Оцінка фільму:   10/10 (Голосів: 2)
   
Інші релізи
boroznaya 
Попереджень: 1
Попереджень: 1 


З нами з: 02.11.12
Востаннє: 17.10.18
Повідомлень: 2967

2018-05-19 16:55  
Фільм "Влада страху" на роздачі!
Приємного перегляду!

kryk-v.ya. 
VIP


З нами з: 14.02.14
Востаннє: 19.10.18
Повідомлень: 614

2018-05-22 12:45  
класний фільм...
boroznaya 
Попереджень: 1
Попереджень: 1 


З нами з: 02.11.12
Востаннє: 17.10.18
Повідомлень: 2967

2018-05-22 12:48  
kryk-v.ya.
Так, Ваша правда!

kryk-v.ya. 
VIP


З нами з: 14.02.14
Востаннє: 19.10.18
Повідомлень: 614

2018-05-22 16:59  
boroznaya
передивився всі фільми Вашингтона останніх років,дуже класні фільми...

Ваш часовий пояс: GMT + 2 Години

Нова тема   Відповісти