Спокуса / Original Sin (2001) 1080p 2xUkr/Eng | Sub Eng

Нові коментарі

Нова тема   Відповісти
Автор Повідомлення
staf777 
Попереджень: 1
Попереджень: 1 


З нами з: 16.11.16
Востаннє: 25.05.18
Повідомлень: 1029

2018-05-17 17:57  
Спокуса / Original Sin (2001) 1080p 2xUkr/Eng | Sub Eng

Спокуса / Original Sin (2001) 1080p 2xUkr/Eng | Sub Eng


Жанр: трилер, мелодрама, детектив
Країна: США, Франція



Кінокомпанія: Epsilon Motion Pictures, Hyde Park Entertainment
Режисер: Майкл Крістофер
Актори: Антоніо Бандерас, Анжеліна Джолі, Томас Джейн, Джек Томпсон, Грегорі Іцин та інші

Сюжет:
Дія стрічки відбувається у 1880 р. Багатий кубинець Луїс Варгас дає в газеті шлюбне оголошення і невдовзі завдяки ньому знайомиться з американкою Джулією Расселл. Однак після весілля красуня зникає, викравши гроші Луїса. Здивований герой разом з приватним детективом вирушає на пошуки дружини...


Тривалість: 01:58:25
Якість:
Відео:
кодек:
розмір кадру: 1920х816
бітрейт: 8715 кб/с

Аудіо # 1:
мова: українська
переклад: багатоголосий закадровий
кодек: 2.0
бітрейт: 192 кб/с

Аудіо # 2:
мова: українська
переклад: багатоголосий закадровий
кодек: 2.0
бітрейт: 192 кб/с

Аудіо # 3:
мова: англійська
переклад: оригінал
кодек: 5.1
бітрейт: 448 кб/с

Субтитри:
мова: англійська
тип: програмні (м'які)
формат: *.srt
Info
General
Unique ID : 242680658705638455448602910191322959553 (0xB6929841B2D6440EAD47206E2CA48EC1)
Complete name : H:\Майбутні релізи\Original Sin (2001) 1080p [2xUKR_ENG] [Hurtom].
Format :
Format version : Version 4 / Version 2
File size : 7.90 GiB
Duration : 1 h 58 min
Overall bit rate : 9 546 kb/s
Movie name : Original Sin (2001) 1080p [2xUKR_ENG] [Hurtom]
Encoded date : UTC 2018-05-17 14:32:41
Writing application : v9.8.0 ('Kuglblids') 64bit
Writing library : libebml v1.3.4 + v1.4.5
Cover : Yes
Attachments : cover.jpg

Video
ID : 1
Format : AVC
Format/Info : Advanced Video Codec
Format profile : [email protected]
Format settings : CABAC / 5 Ref Frames
Format settings, CABAC : Yes
Format settings, ReFrames : 5 frames
Codec ID : V_MPEG4/ISO/AVC
Duration : 1 h 58 min
Bit rate : 8 715 kb/s
Width : 1 920 pixels
Height : 816 pixels
Display aspect ratio : 2.35:1
Frame rate mode : Constant
Frame rate : 23.976 (24000/1001) FPS
Color space : YUV
Chroma subsampling : 4:2:0
Bit depth : 8 bits
Scan type : Progressive
Bits/(Pixel*Frame) : 0.232
Stream size : 7.21 GiB (91%)
Title : NoLimits-Team
Writing library : core 133 r2334 a3ac64b
Encoding settings : cabac=1 / ref=5 / deblock=1:-3:-3 / analyse=0x3:0x113 / me=umh / subme=10 / psy=1 / psy_rd=1.00:0.10 / mixed_ref=1 / me_range=32 / chroma_me=1 / trellis=2 / 8x8dct=1 / cqm=0 / deadzone=21,11 / fast_pskip=0 / chroma_qp_offset=-3 / threads=6 / lookahead_threads=1 / sliced_threads=0 / nr=0 / decimate=0 / interlaced=0 / bluray_compat=0 / constrained_intra=0 / bframes=5 / b_pyramid=2 / b_adapt=2 / b_bias=0 / direct=3 / weightb=1 / open_gop=0 / weightp=2 / keyint=240 / keyint_min=23 / scenecut=40 / intra_refresh=0 / rc_lookahead=60 / rc=2pass / mbtree=1 / bitrate=8715 / ratetol=1.0 / qcomp=0.60 / qpmin=0 / qpmax=69 / qpstep=4 / cplxblur=20.0 / qblur=0.5 / ip_ratio=1.40 / aq=1:0.95
Language : English
Default : Yes
Forced : No

Audio #1
ID : 2
Format : AC-3
Format/Info : Audio Coding 3
Codec ID : A_AC3
Duration : 1 h 58 min
Bit rate mode : Constant
Bit rate : 192 kb/s
Channel(s) : 2 channels
Channel positions : Front: L R
Sampling rate : 48.0 kHz
Frame rate : 31.250 FPS (1536 SPF)
Bit depth : 16 bits
Compression mode : Lossy
Stream size : 163 MiB (2%)
Title : [UA-MVO-NTN]
Language : Ukrainian
Service kind : Complete Main
Default : Yes
Forced : Yes

Audio #2
ID : 3
Format : AC-3
Format/Info : Audio Coding 3
Codec ID : A_AC3
Duration : 1 h 58 min
Bit rate mode : Constant
Bit rate : 192 kb/s
Channel(s) : 2 channels
Channel positions : Front: L R
Sampling rate : 48.0 kHz
Frame rate : 31.250 FPS (1536 SPF)
Bit depth : 16 bits
Compression mode : Lossy
Stream size : 163 MiB (2%)
Title : [UA-MVO-CINE]
Language : Ukrainian
Service kind : Complete Main
Default : No
Forced : No

Audio #3
ID : 4
Format : AC-3
Format/Info : Audio Coding 3
Codec ID : A_AC3
Duration : 1 h 58 min
Bit rate mode : Constant
Bit rate : 448 kb/s
Channel(s) : 6 channels
Channel positions : Front: L C R, Side: L R, LFE
Sampling rate : 48.0 kHz
Frame rate : 31.250 FPS (1536 SPF)
Bit depth : 16 bits
Compression mode : Lossy
Stream size : 379 MiB (5%)
Language : English
Service kind : Complete Main
Default : No
Forced : No

Text
ID : 5
Format : UTF-8
Codec ID : S_TEXT/UTF8
Codec ID/Info : UTF-8 Plain Text
Duration : 1 h 56 min
Bit rate : 40 b/s
Count of elements : 1244
Stream size : 34.9 KiB (0%)
Language : English
Default : No
Forced : No

Menu
00:00:00.000 : en:Chapter 01
00:12:59.779 : en:Chapter 02
00:22:04.239 : en:Chapter 03
00:26:26.418 : en:Chapter 04
00:34:12.008 : en:Chapter 05
00:47:24.299 : en:Chapter 06
00:56:46.152 : en:Chapter 07
01:01:30.061 : en:Chapter 08
01:12:18.250 : en:Chapter 09
01:21:16.538 : en:Chapter 10
01:29:53.012 : en:Chapter 11
01:38:02.459 : en:Chapter 12
01:45:16.935 : en:Chapter 13
01:51:43.530 : en:Chapter 14
01:53:43.233 : en:Chapter 15
Скріншоти



Запис з Нового - slavik_v_z, запис з Cine - Sando7, синхронізація - Arsenfpu.

Джерело: &
Особиста оцінка: 8 - мені сподобалося


Срібний реліз (на рейтинг впливає 50% завантаженого)
 Трекер:    Зареєстрований   

Завантажити / скачати фільм українською



відео для новачків



 Зареєстрований:   2018-05-17 17:57
 Розмір:   7.9 GB 
 Оцінка фільму:   10/10 (Голосів: 3)
   
Інші релізи
   Спокуса / Original Sin (2001) 2xUkr/Eng Arsenfpu  8 / 0   1.97 GB   2018-05-17 13:59 
   Спокуса / Original Sin [Unrated] (2001) Remux 1080p 2xUkr/Eng Deiv  2 / 0   14.36 GB   2018-01-05 19:44 
   Спокуса / Original Sin (2001) Ukr/Eng _oles  6 / 0   2.18 GB   2010-02-02 16:54 
Ваш часовий пояс: GMT + 2 Години

Нова тема   Відповісти