Той, хто ходить у вогні / Firewalker (1986) 1080p Ukr/Eng | Sub Eng

Нові коментарі

Нова тема   Відповісти
Останній раз роздавалося staf777 (2018-10-18)
Автор Повідомлення
staf777 
Попереджень: 1
Попереджень: 1 


З нами з: 16.11.16
Востаннє: 18.10.18
Повідомлень: 1637

2018-05-17 16:22  
Той, хто ходить у вогні / Firewalker (1986) 1080p Ukr/Eng | Sub Eng

Той, хто ходить у вогні / Firewalker (1986) 1080p Ukr/Eng | Sub Eng


Жанр: екшн, пригодницький, комедія
Країна: США



Кінокомпанія: Cannon Group, Golan-Globus Productions
Режисер: Дж. Лі Томпсон
Актори: Чак Норріс, Луїс Госсет мол., Мелоді Андерсон, Вілл Семпсон, Сонні Лендхем

Сюжет:
У Патриції Гудвін є карта, яка може привести до золотого скарбу ацтеків. Але наодинці тендітній жінці з такою місією не впоратися! Тому вона наймає двох кремезних авантюристів, готових за золоті обіцянки пройти разом з нею крізь вогонь і воду. Це Макс і його приятель Лео. Трійця мисливців за старовиною відправляється в путь, який буде повний і небезпек, і перешкод, і смішних моментів! Якщо їх зухвалий план буде здійснено, троє друзів повернуться додому багатіями!


Тривалість: 01:45:05
Якість: 1080p
Відео:
кодек:
розмір кадру: 1920x1040
бітрейт: 11.0 Mб/с

Аудіо # 1:
мова: українська
переклад: багатоголосий закадровий
кодек: 2.0
бітрейт: 192 кб/с

Аудіо # 2:
мова: англійська
переклад: оригінал
кодек: 5.1
бітрейт: 448 кб/с

Джерело озвучення:


Субтитри:
мова: англійська
тип: пререндерні
формат: *.pgs
Info
General
Unique ID : 202622573439522308796844707337368101536 (0x986FB02B3A36E627BE7F28BEC46DE2A0)
Complete name : H:\Майбутні релізи\Firewalker (1986) 1080p [Ukr][Eng][Sub Eng][Hurtom].
Format :
Format version : Version 4 / Version 2
File size : 8.55 GiB
Duration : 1 h 45 min
Overall bit rate : 11.6 Mb/s
Movie name : Firewalker (1986) 1080p [Ukr][Eng][Sub Eng][Hurtom]
Encoded date : UTC 2018-05-17 13:02:30
Writing application : v9.8.0 ('Kuglblids') 64bit
Writing library : libebml v1.3.4 + v1.4.5
Cover : Yes
Attachments : cover.jpg

Video
ID : 1
Format : AVC
Format/Info : Advanced Video Codec
Format profile : [email protected]
Format settings : CABAC / 3 Ref Frames
Format settings, CABAC : Yes
Format settings, ReFrames : 3 frames
Codec ID : V_MPEG4/ISO/AVC
Duration : 1 h 45 min
Bit rate : 11.0 Mb/s
Width : 1 920 pixels
Height : 1 040 pixels
Display aspect ratio : 1.85:1
Frame rate mode : Constant
Frame rate : 59.940 (59940/1000) FPS
Color space : YUV
Chroma subsampling : 4:2:0
Bit depth : 8 bits
Scan type : Progressive
Bits/(Pixel*Frame) : 0.092
Stream size : 8.07 GiB (94%)
Title : Firewalker (1986)
Writing library : core 125 r2208 d9d2288
Encoding settings : cabac=1 / ref=4 / deblock=1:-1:-1 / analyse=0x3:0x133 / me=umh / subme=11 / psy=1 / psy_rd=1.15:0.25 / mixed_ref=1 / me_range=24 / chroma_me=1 / trellis=2 / 8x8dct=1 / cqm=0 / deadzone=21,11 / fast_pskip=0 / chroma_qp_offset=-4 / threads=12 / lookahead_threads=2 / sliced_threads=0 / nr=0 / decimate=1 / interlaced=0 / bluray_compat=0 / constrained_intra=0 / bframes=6 / b_pyramid=1 / b_adapt=2 / b_bias=0 / direct=3 / weightb=1 / open_gop=0 / weightp=2 / keyint=250 / keyint_min=25 / scenecut=40 / intra_refresh=0 / rc_lookahead=50 / rc=2pass / mbtree=1 / bitrate=11000 / ratetol=1.0 / qcomp=0.60 / qpmin=0 / qpmax=69 / qpstep=4 / cplxblur=20.0 / qblur=0.5 / ip_ratio=1.40 / aq=2:1.00
Language : English
Default : Yes
Forced : No

Audio #1
ID : 2
Format : AC-3
Format/Info : Audio Coding 3
Codec ID : A_AC3
Duration : 1 h 45 min
Bit rate mode : Constant
Bit rate : 192 kb/s
Channel(s) : 2 channels
Channel positions : Front: L R
Sampling rate : 48.0 kHz
Frame rate : 31.250 FPS (1536 SPF)
Bit depth : 16 bits
Compression mode : Lossy
Stream size : 144 MiB (2%)
Title : ICTV
Language : Ukrainian
Service kind : Complete Main
Default : Yes
Forced : Yes

Audio #2
ID : 3
Format : AC-3
Format/Info : Audio Coding 3
Codec ID : A_AC3
Duration : 1 h 45 min
Bit rate mode : Constant
Bit rate : 448 kb/s
Channel(s) : 6 channels
Channel positions : Front: L C R, Side: L R, LFE
Sampling rate : 48.0 kHz
Frame rate : 31.250 FPS (1536 SPF)
Bit depth : 16 bits
Compression mode : Lossy
Stream size : 337 MiB (4%)
Language : English
Service kind : Complete Main
Default : No
Forced : No

Text
ID : 4
Format : PGS
Muxing mode : zlib
Codec ID : S_HDMV/PGS
Codec ID/Info : Picture based subtitle format used on BDs/HD-DVDs
Duration : 1 h 41 min
Bit rate : 4 639 b/s
Count of elements : 2060
Stream size : 3.37 MiB (0%)
Language : English
Default : No
Forced : No

Menu
00:00:00.000 : en:Chapter 01
00:06:38.272 : en:Chapter 02
00:20:40.822 : en:Chapter 03
00:26:44.978 : en:Chapter 04
00:36:07.707 : en:Chapter 05
00:46:44.802 : en:Chapter 06
00:55:07.762 : en:Chapter 07
01:01:37.735 : en:Chapter 08
01:10:50.829 : en:Chapter 09
01:18:29.705 : en:Chapter 10
01:31:31.444 : en:Chapter 11
01:42:19.925 : en:Chapter 12
01:45:04.548 : en:Chapter 13
Скріншоти



Джерело: &


 Трекер:    Зареєстрований   

Завантажити / скачати фільм українською



відео для новачків



 Зареєстрований:   2018-05-17 16:33
 Розмір:   8.55 GB 
 Оцінка фільму:   5.5/10 (Голосів: 2)
   
Інші релізи
   Той, хто ходить у вогні / Firewalker (1986) Givi  3 / 0   1.37 GB   2010-10-11 21:32 
igor911 
Відео Гуртом
Відео Гуртом


З нами з: 18.01.08
Востаннє: 19.10.18
Повідомлень: 11249

2018-05-17 16:44  
staf777 написано:
Frame rate : 59.940 (59940/1000) FPS
Bits/(Pixel*Frame) : 0.092

Правила відео написано:
5. Обов'язкові технічні вимоги:

2pass: значення Bits/(Pixel*Frame) має бути не меншим, ніж 0.12

Ваш часовий пояс: GMT + 2 Години

Нова тема   Відповісти