Гомер та Едді / Homer and Eddie (1989) 720p Ukr/Eng | Sub Eng — HD українською

Гомер та Едді / Homer and Eddie (1989) 720p Ukr/Eng | Sub Eng

Нові коментарі

Нова тема   Відповісти
Автор Повідомлення
Anonymous 







2018-05-17 11:23  
Гомер та Едді / Homer and Eddie (1989) 720p Ukr/Eng | Sub Eng

Гомер та Едді / Homer and Eddie (1989) 720p Ukr/Eng | Sub Eng


Жанр: комедія, кримінальний, драма
Країна: США



Кінокомпанія: Kings Road Entertainment
Режисер: Андрій Кончаловський
Актори: Джеймс Белуші, Вупі Ґолдберґ, Джим Меп, Джон Вотерс, Роберт Глаудіні, Карен Блек, Ені Рамсі

Сюжет:
Гомер (Джеймс Белуші) — доброзичлива, але психічно відстала людина, чиї розумові здібності розвинені на рівні дитини. Змалечку його кинули батьки через мозкову травму, що й зумовила його недугу. Він їде в дім батька, який лежить при смерті. Пограбований у дорозі, він зустрічає Едді (Вупі Ґолдберґ), смертельно хвору й озлоблену жінку, що втекла з божевільні. Їй однаково, куди їхати. Разом вони продовжують подорож…


Тривалість: 01:40:12
Якість:
Відео:
кодек:
розмір кадру: 1280х 720
бітрейт: 5058 кб/с

Аудіо # 1:
мова: українська
переклад: багатоголосий закадровий
кодек: 2.0
бітрейт: 192 кб/с

Аудіо # 2:
мова: англійська
переклад: оригінал
кодек: EAC3 2.0
бітрейт: 224 кб/с

Субтитри:
мова: англійська
тип: програмні (м'які)
формат: *.srt
Info
General
Unique ID : 209259653417903921443951613867289855935 (0x9D6DF179F198097D8157B8A1E1D1C7BF)
Complete name : G:\REC\Homer and Eddie (1989) 720p [ukr.eng] Hurtom.
Format :
Format version : Version 2
File size : 3.91 GiB
Duration : 1h 40mn
Overall bit rate : 5 585 Kbps
Movie name : Homer and Eddie (1989) 720p [ukr.eng] Hurtom
Encoded date : UTC 2018-05-17 08:09:23
Writing application : v4.4.0 ('Die Wiederkehr') зібрано Oct 31 2010 21:52:48
Writing library : libebml v1.0.0 + v1.0.0
DURATION : 01:40:12.048000000
NUMBER_OF_FRAMES : 144145
NUMBER_OF_BYTES : 3882916847
_STATISTICS_WRITING_APP : v22.0.0 ('At The End Of The World') 64-bit
_STATISTICS_WRITING_DATE_UT : 2018-05-16 20:08:43
_STATISTICS_TAGS : BPS DURATION NUMBER_OF_FRAMES NUMBER_OF_BYTES

Video
ID : 1
Format : AVC
Format/Info : Advanced Video Codec
Format profile : [email protected]
Format settings, CABAC : Yes
Format settings, ReFrames : 4 frames
Codec ID : V_MPEG4/ISO/AVC
Duration : 1h 40mn
Bit rate : 5 058 Kbps
Width : 1 280 pixels
Height : 720 pixels
Display aspect ratio : 16:9
Frame rate mode : Constant
Frame rate : 23.976 fps
Color space : YUV
Chroma subsampling : 4:2:0
Bit depth : 8 bits
Scan type : Progressive
Bits/(Pixel*Frame) : 0.229
Stream size : 3.54 GiB (91%)
Title : Homer and Eddie (1989) 720p [ukr.eng] Hurtom
Writing library : core 155 r2901 7d0ff22
Encoding settings : cabac=1 / ref=4 / deblock=1:1:0 / analyse=0x3:0x113 / me=umh / subme=9 / psy=1 / psy_rd=1.00:0.00 / mixed_ref=1 / me_range=16 / chroma_me=1 / trellis=2 / 8x8dct=1 / cqm=0 / deadzone=21,11 / fast_pskip=1 / chroma_qp_offset=-2 / threads=6 / lookahead_threads=1 / sliced_threads=0 / nr=0 / decimate=1 / interlaced=0 / bluray_compat=0 / constrained_intra=0 / bframes=3 / b_pyramid=2 / b_adapt=2 / b_bias=0 / direct=3 / weightb=0 / open_gop=0 / weightp=2 / keyint=230 / keyint_min=22 / scenecut=40 / intra_refresh=0 / rc_lookahead=50 / rc=crf / mbtree=1 / crf=17.0 / qcomp=0.60 / qpmin=0 / qpmax=69 / qpstep=4 / vbv_maxrate=62500 / vbv_bufsize=78125 / crf_max=0.0 / nal_hrd=none / filler=0 / ip_ratio=1.40 / aq=1:1.00
Language : Multiple languages
Default : Yes
Forced : No

Audio #1
ID : 2
Format : AC-3
Format/Info : Audio Coding 3
Mode extension : CM (complete main)
Format settings, Endianness : Big
Codec ID : A_AC3
Duration : 1h 40mn
Bit rate mode : Constant
Bit rate : 192 Kbps
Channel(s) : 2 channels
Channel positions : Front: L R
Sampling rate : 48.0 KHz
Bit depth : 16 bits
Compression mode : Lossy
Stream size : 138 MiB (3%)
Title : 1+1 channel
Language : Ukrainian
Default : Yes
Forced : Yes

Audio #2
ID : 3
Format : E-AC-3
Format/Info : Audio Coding 3
Format settings, Endianness : Big
Codec ID : A_EAC3
Duration : 1h 40mn
Bit rate mode : Constant
Bit rate : 224 Kbps
Channel(s) : 2 channels
Channel positions : Front: L R
Sampling rate : 48.0 KHz
Compression mode : Lossy
Delay relative to video : 16ms
Stream size : 161 MiB (4%)
Title : original
Language : English
Default : No
Forced : No

Text
ID : 4
Format : UTF-8
Codec ID : S_TEXT/UTF8
Codec ID/Info : UTF-8 Plain Text
Language : English
Default : Yes
Forced : No
Скріншоти






Джерело:


Срібний реліз (на рейтинг впливає 50% завантаженого)
 Трекер:    Зареєстрований   

Завантажити / скачати фільм українською



відео для новачків



 Зареєстрований:   2018-05-17 11:23
 Розмір:   3.91 GB 
 Оцінка фільму:   10/10 (Голосів: 2)
   
Інші релізи
   Гомер та Едді / Homer and Eddie (1989) AVC Ukr/Eng | sub Eng bodia87  5 / 0   1.72 GB   2018-05-17 11:05 
Ваш часовий пояс: GMT + 2 Години

Нова тема   Відповісти