Гомер та Едді / Homer and Eddie (1989) AVC Ukr/Eng | sub Eng — Українське озвучення

Гомер та Едді / Homer and Eddie (1989) AVC Ukr/Eng | sub Eng

Нові коментарі

Нова тема   Відповісти
Автор Повідомлення
Anonymous 







2018-05-17 11:05  
Гомер та Едді / Homer and Eddie (1989) AVC Ukr/Eng | sub Eng

Гомер та Едді / Homer and Eddie (1989) AVC Ukr/Eng | sub Eng


Жанр: комедія, кримінальний, драма
Країна: США



Кінокомпанія: Kings Road Entertainment
Режисер: Андрій Кончаловський
Актори: Джим Белуші, Вупі Голдебрг, Джим Меп, Джон Вотерс, Роберт Глаудіні, Карен Блек, Ені Рамсі

Сюжет:
Гомер (Джеймс Белуші) — доброзичлива, але психічно відстала людина, чиї розумові здібності розвинені на рівні дитини. Змалечку його кинули батьки через мозкову травму, що й зумовила його недугу. Він їде в дім батька, який лежить при смерті. Пограбований у дорозі, він зустрічає Едді (Вупі Ґолдберґ), смертельно хвору й озлоблену жінку, що втекла з божевільні. Їй однаково, куди їхати. Разом вони продовжують подорож…


Тривалість: 01:40:12
Якість:
Відео:
кодек:
розмір кадру: 1024 х 576
бітрейт: 1 991 кб/с

Аудіо # 1:
мова: українська
переклад: багатоголосий закадровий
кодек: 2.0
бітрейт: 192 кб/с

Аудіо # 2:
мова: англійська
переклад: оригінал
кодек: E- 2.0
бітрейт: 224 кб/с

Субтитри:
мова: англійська
тип: програмні (м'які)
формат: *.srt
Info
General
Unique ID : 175264499637209994886009859302277623183 (0x83DAB6FD640342A0AC97D673E855AD8F)
Complete name : F:\release\Homer and Eddie (1989) AVC [ukr.eng] Hurtom.
Format :
Format version : Version 2
File size : 1.72 GiB
Duration : 1h 40mn
Overall bit rate : 2 456 Kbps
Movie name : Homer and Eddie (1989) AVC [ukr.eng] Hurtom
Encoded date : UTC 2018-05-17 07:38:22
Writing application : v4.4.0 ('Die Wiederkehr') зібрано Oct 31 2010 21:52:48
Writing library : libebml v1.0.0 + v1.0.0
DURATION : 01:40:12.048000000
NUMBER_OF_FRAMES : 144145
NUMBER_OF_BYTES : 1531548820
_STATISTICS_WRITING_APP : v22.0.0 ('At The End Of The World') 64-bit
_STATISTICS_WRITING_DATE_UT : 2018-05-16 06:05:43
_STATISTICS_TAGS : BPS DURATION NUMBER_OF_FRAMES NUMBER_OF_BYTES

Video
ID : 1
Format : AVC
Format/Info : Advanced Video Codec
Format profile : [email protected]
Format settings, CABAC : Yes
Format settings, ReFrames : 4 frames
Codec ID : V_MPEG4/ISO/AVC
Duration : 1h 40mn
Bit rate : 1 991 Kbps
Width : 1 024 pixels
Height : 576 pixels
Display aspect ratio : 16:9
Frame rate mode : Constant
Frame rate : 23.976 fps
Color space : YUV
Chroma subsampling : 4:2:0
Bit depth : 8 bits
Scan type : Progressive
Bits/(Pixel*Frame) : 0.141
Stream size : 1.39 GiB (81%)
Title : Homer and Eddie (1989) AVC [ukr.eng] Hurtom
Writing library : core 155 r2901 7d0ff22
Encoding settings : cabac=1 / ref=4 / deblock=1:1:0 / analyse=0x1:0x111 / me=umh / subme=9 / psy=1 / psy_rd=1.00:0.00 / mixed_ref=1 / me_range=16 / chroma_me=1 / trellis=2 / 8x8dct=0 / cqm=0 / deadzone=21,11 / fast_pskip=1 / chroma_qp_offset=-2 / threads=6 / lookahead_threads=1 / sliced_threads=0 / nr=0 / decimate=1 / interlaced=0 / bluray_compat=0 / constrained_intra=0 / bframes=3 / b_pyramid=2 / b_adapt=2 / b_bias=0 / direct=3 / weightb=0 / open_gop=0 / weightp=2 / keyint=230 / keyint_min=22 / scenecut=40 / intra_refresh=0 / rc_lookahead=50 / rc=crf / mbtree=1 / crf=19.0 / qcomp=0.60 / qpmin=0 / qpmax=69 / qpstep=4 / vbv_maxrate=14000 / vbv_bufsize=14000 / crf_max=0.0 / nal_hrd=none / filler=0 / ip_ratio=1.40 / aq=1:1.00
Language : Multiple languages
Default : Yes
Forced : No

Audio #1
ID : 2
Format : AC-3
Format/Info : Audio Coding 3
Mode extension : CM (complete main)
Format settings, Endianness : Big
Codec ID : A_AC3
Duration : 1h 40mn
Bit rate mode : Constant
Bit rate : 192 Kbps
Channel(s) : 2 channels
Channel positions : Front: L R
Sampling rate : 48.0 KHz
Bit depth : 16 bits
Compression mode : Lossy
Stream size : 138 MiB (8%)
Title : 1+1 channel
Language : Ukrainian
Default : Yes
Forced : Yes

Audio #2
ID : 3
Format : E-AC-3
Format/Info : Audio Coding 3
Format settings, Endianness : Big
Codec ID : A_EAC3
Duration : 1h 40mn
Bit rate mode : Constant
Bit rate : 224 Kbps
Channel(s) : 2 channels
Channel positions : Front: L R
Sampling rate : 48.0 KHz
Compression mode : Lossy
Delay relative to video : 16ms
Stream size : 161 MiB (9%)
Title : Original
Language : English
Default : No
Forced : No

Text
ID : 4
Format : UTF-8
Codec ID : S_TEXT/UTF8
Codec ID/Info : UTF-8 Plain Text
Language : English
Default : Yes
Forced : No
Скріншоти







Джерело:


Срібний реліз (на рейтинг впливає 50% завантаженого)
 Трекер:    Зареєстрований   

Завантажити / скачати фільм українською



відео для новачків



 Зареєстрований:   2018-05-17 11:05
 Розмір:   1.72 GB 
 Оцінка фільму:   9.5/10 (Голосів: 8)
   
Інші релізи
Anonymous 







2018-05-17 11:33  
MykhayloМ 
Свій


З нами з: 05.01.13
Востаннє: 14.08.18
Повідомлень: 122

2018-05-20 00:50  
Фільм - супер ! Абстрагуючись від того що його автор - Міхалков-Кнчаловський, в даному разі можна просто просто не звертати на це уваги. Тим більше що фільм знятий задовго до сучасного офіційного рашен-психоза.
Я довго шукав цей фільм в українській озвучці , хочеться подякувати всім тим хто дав змогу дивитись його з українським дубляжем .
Дякую ! Happy

Ваш часовий пояс: GMT + 2 Години

Нова тема   Відповісти