Час відьом / Season of the witch (2011) 1080p Ukr/Eng | Sub Eng — HD українською

Час відьом / Season of the witch (2011) 1080p Ukr/Eng | Sub Eng

Нові коментарі

Нова тема   Відповісти
Автор Повідомлення
staf777 
Попереджень: 1
Попереджень: 1 


З нами з: 16.11.16
Востаннє: 14.08.18
Повідомлень: 1368

2018-05-16 19:40  
Час відьом / Season of the witch (2011) 1080p Ukr/Eng | Sub Eng

Час відьом / Season of the witch (2011) 1080p Ukr/Eng | Sub Eng


Жанр: екшн, пригодницький, фентезі
Країна: США



Кінокомпанія: Atlas Entertainment, Relativity Media
Режисер: Домінік Сена
Актори: Ніколас Кейдж, Рон Перлман, Стівен Кемпбел Мур, Стівен Грехем, Ульріх Томсен, Клер Фой, Роберт Шіен, Крістофер Лі, Ребека Кеннеді, Ендрю Хефлер, Фернанда Дорогі, Кевін Ріс, Метт Девер, Роберт Банлакі, Барна Ільєс

Сюжет:
Дія картини розгортається в XIV столітті. У Європі лютує чорна чума. Винуватицею смертельної хвороби визнають бідну дівчину, підозрювану в чаклунстві. Її чекає суд і вогнище, але на захист обвинуваченої встає хоробрий лицар Лавей, який вірить в її невинність. Щоб довести це, він разом з дівчиною і іншим лицарем вирушає на поклоніння до святині в древній монастир. В дорозі лицарів і загадкову супутницю чекає жорстока сутичка з силами зла.


Тривалість: 01:34:55
Якість:
Відео:
кодек:
розмір кадру: 1920x1080
бітрейт: 10,4 Мб/с

Аудіо # 1:
мова: українська
переклад: багатоголосий закадровий
кодек: 2.0
бітрейт: 192 кб/с

Аудіо # 2:
мова: англійська
переклад: оригінал
кодек: 5.1
бітрейт: 640 кб/с

Субтитри:
мова: англійська
тип: програмні (м'які)
формат: *.srt
Info
General
Unique ID : 170986355023993034497102130533330654325 (0x80A2C62CDFEC04F1AD713A6E73491475)
Complete name : H:\Майбутні релізи\ Season of the witch (2011) 1080p [Ukr][Eng][Sub Eng][Hurtom].
Format :
Format version : Version 4 / Version 2
File size : 7.42 GiB
Duration : 1 h 34 min
Overall bit rate : 11.2 Mb/s
Movie name : Season of the witch (2011) 1080p [Ukr][Eng][Sub Eng][Hurtom]
Encoded date : UTC 2018-05-16 16:10:48
Writing application : v9.8.0 ('Kuglblids') 64bit
Writing library : libebml v1.3.4 + v1.4.5
Cover : Yes
Attachments : cover.jpg

Video
ID : 1
Format : AVC
Format/Info : Advanced Video Codec
Format profile : [email protected]
Format settings : CABAC / 4 Ref Frames
Format settings, CABAC : Yes
Format settings, ReFrames : 4 frames
Codec ID : V_MPEG4/ISO/AVC
Duration : 1 h 34 min
Bit rate : 10.4 Mb/s
Width : 1 920 pixels
Height : 1 080 pixels
Display aspect ratio : 16:9
Frame rate mode : Constant
Frame rate : 23.976 (24000/1001) FPS
Color space : YUV
Chroma subsampling : 4:2:0
Bit depth : 8 bits
Scan type : Progressive
Bits/(Pixel*Frame) : 0.209
Stream size : 6.87 GiB (93%)
Title : Vremja ved'm.(2010)..1080p.[denis100]
Writing library : core 140 r2377 1ca7bb9
Encoding settings : cabac=1 / ref=4 / deblock=1:-3:-3 / analyse=0x3:0x133 / me=umh / subme=11 / psy=1 / psy_rd=1.00:0.10 / mixed_ref=1 / me_range=32 / chroma_me=1 / trellis=2 / 8x8dct=1 / cqm=0 / deadzone=21,11 / fast_pskip=0 / chroma_qp_offset=-3 / threads=6 / lookahead_threads=1 / sliced_threads=0 / nr=0 / decimate=0 / interlaced=0 / bluray_compat=0 / constrained_intra=0 / bframes=6 / b_pyramid=2 / b_adapt=2 / b_bias=0 / direct=3 / weightb=1 / open_gop=0 / weightp=2 / keyint=240 / keyint_min=23 / scenecut=40 / intra_refresh=0 / rc=2pass / mbtree=0 / bitrate=10412 / ratetol=1.0 / qcomp=0.60 / qpmin=0 / qpmax=69 / qpstep=4 / cplxblur=20.0 / qblur=0.5 / ip_ratio=1.40 / pb_ratio=1.30 / aq=1:0.90
Language : English
Default : Yes
Forced : No

Audio #1
ID : 2
Format : AC-3
Format/Info : Audio Coding 3
Codec ID : A_AC3
Duration : 1 h 34 min
Bit rate mode : Constant
Bit rate : 192 kb/s
Channel(s) : 2 channels
Channel positions : Front: L R
Sampling rate : 48.0 kHz
Frame rate : 31.250 FPS (1536 SPF)
Bit depth : 16 bits
Compression mode : Lossy
Stream size : 130 MiB (2%)
Title : [UA-MVO]
Language : Ukrainian
Service kind : Complete Main
Default : Yes
Forced : Yes

Audio #2
ID : 3
Format : AC-3
Format/Info : Audio Coding 3
Codec ID : A_AC3
Duration : 1 h 34 min
Bit rate mode : Constant
Bit rate : 640 kb/s
Channel(s) : 6 channels
Channel positions : Front: L C R, Side: L R, LFE
Sampling rate : 48.0 kHz
Frame rate : 31.250 FPS (1536 SPF)
Bit depth : 16 bits
Compression mode : Lossy
Stream size : 435 MiB (6%)
Title : Оригинал
Language : English
Service kind : Complete Main
Default : No
Forced : No

Text
ID : 4
Format : UTF-8
Codec ID : S_TEXT/UTF8
Codec ID/Info : UTF-8 Plain Text
Duration : 1 h 25 min
Bit rate : 37 b/s
Count of elements : 825
Stream size : 23.6 KiB (0%)
Title : Full
Language : English
Default : No
Forced : No

Menu
00:00:00.000 : :Chapter 01
00:05:34.751 : :Chapter 02
00:12:02.930 : :Chapter 03
00:16:29.196 : :Chapter 04
00:23:05.592 : :Chapter 05
00:28:58.236 : :Chapter 06
00:33:58.661 : :Chapter 07
00:39:42.213 : :Chapter 08
00:44:59.363 : :Chapter 09
00:48:58.685 : :Chapter 10
00:55:39.794 : :Chapter 11
01:03:07.909 : :Chapter 12
01:08:13.631 : :Chapter 13
01:14:18.287 : :Chapter 14
01:23:47.897 : :Chapter 15
01:27:06.721 : :Chapter 16
Скріншоти



Запис з ТБ - Bohdan237, синхронізація - Arsenfpu, постер - Gelios.
Джерело: &
Особиста оцінка: 10 - без зайвих вагань рекомендую всім


 Трекер:    Зареєстрований   

Завантажити / скачати фільм українською



відео для новачків



 Зареєстрований:   2018-05-16 19:40
 Розмір:   7.42 GB 
 Оцінка фільму:   6.8/10 (Голосів: 6)
   
Інші релізи
   Час відьом / Season of the witch (2011) AVC Ukr/Eng | Sub Eng Arsenfpu  7 / 0   1.84 GB   2018-04-01 19:28 
   Час відьом / Season of the witch (2011) Ukr/Eng | Sub Eng karvai0  4 / 0   1.59 GB   2012-08-02 18:43 
   Час відьом / Season of the witch (2011) 720p Ukr/Eng | Sub Eng braveboy  2 / 0   2.87 GB   2011-05-27 23:46 
   Час відьом / Season of the witch (2011) 720p Zeus62  1 / 0   4.34 GB   2011-05-25 10:20 
   Час відьом / Season of the witch (2011) Ukr/Eng antik_2008  3 / 0   2.17 GB   2011-05-22 15:39 
Custo 12 
Свій


З нами з: 08.11.16
Востаннє: 10.08.18
Повідомлень: 54

2018-05-19 14:09  
Шлачина еталонна.
crazy kinoman 
Новенький


З нами з: 25.01.16
Востаннє: 14.08.18
Повідомлень: 15

2018-05-22 01:24  
та не кажи, треба хоч рейтинги вказувать чи томатів чи imdb
Ваш часовий пояс: GMT + 2 Години

Нова тема   Відповісти