Жах на вулиці В’язів. Колекція / A Nightmare on Elm Street. Collection (1984-2010) 1080p H.265 Ukr/Eng | Sub Eng — HD українською

Жах на вулиці В’язів. Колекція / A Nightmare on Elm Street. Collection (1984-2010) 1080p H.265 Ukr/Eng | Sub Eng

Нові коментарі

Нова тема   Відповісти
Автор Повідомлення
ukr_anonymous 
Попереджень: 1
Попереджень: 1 


З нами з: 17.04.18
Востаннє: 14.08.18
Повідомлень: 191

2018-05-16 19:09  
Жах на вулиці В’язів. Колекція / A Nightmare on Elm Street. Collection (1984-2010) 1080p H.265 Ukr/Eng | Sub Eng

Жах на вулиці В’язів. Колекція / A Nightmare on Elm Street. Collection (1984-2010) 1080p H.265 Ukr/Eng | Sub Eng




Цитата:
Увага!!! Розшукуються доріжки від студії "1+1" на 6 та 7 частини або хоча б якісь, нашою, солов'їною мовою


Жах на вулиці В’язів / A Nightmare on Elm Street (1984) 1080p H.265 2хUkr/Eng | Sub Eng
Жах на вулиці В’язів / A Nightmare on Elm Street (1984) 1080p H.265 2хUkr/Eng | Sub Eng

Жах на вулиці В’язів. Колекція / A Nightmare on Elm Street. Collection (1984-2010) 1080p H.265 Ukr/Eng | Sub Eng

Жанр: жахи
Країна: США



Кінокомпанія: New Line Cinema, Media Home Entertainment, Smart Egg Pictures
Режисер: Вес Крейвен (Wes Craven)
Актори: Джон Саксон (John Saxon), Ронні Барклей (Ronee Blakley), Гізер Ленґенкемп (Heather Langenkamp), Аманда Вісс (Amanda Wyss), Джу Ґарсія (Jsu Garcia), Джонні Депп (Johnny Depp) та інші.

Сюжет:
Молоді люди, що живуть на вулиці В'язів в невеликому містечку Спрінґвуд, раптово починають бачити один і той самий кошмар, в якому людина в брудному червоно-зеленому смугастому светрі зі спотвореним обличчям з гострими лезами на пальцях намагається вбити їх. Закохані Ненсі Томпсон і Ґлен Ланц стають свідками жорстокого вбивства їх подруги Тіни, причому підозра падає на їх приятеля - Рода, її хлопця, який знаходився в одній кімнаті з нею у момент вбивства. Він ховається з місця злочину, але незабаром його ловлять. Однак юнак стверджує, що не винен, і що в кімнаті був хтось ще...


Тривалість: 01:31:14
Якість:
Відео:
кодек: H.265 (HEVC)
розмір кадру: 1920 x 1080
бітрейт: 6 460 кб/с
бітова глибина: 10 біт
Увага! Перед завантаженням переконайтесь, що ваш пристрій відтворення (та/або ПЗ) підтримують H.265 (HEVC)

Аудіо # 1:
мова: українська
переклад: багатоголосий закадровий
кодек: 2.0
бітрейт: 192 кб/с

Аудіо # 2:
мова: українська
переклад: багатоголосий закадровий
кодек: 2.0
бітрейт: 192 кб/с

Аудіо # 3:
мова: англійська
переклад: оригінал
кодек: 5.1
бітрейт: 448 кб/с

Субтитри:
мова: англійська
тип: програмні (м'які)
формат: *.srt
Info
General
Unique ID : 47173113349377846663308056628574365242 (0x237D360E61D3C632E7B03A1DF69D263A)
Complete name : E:\video\A Nightmare on Elm Street. Collection\1. A Nightmare on Elm Street (1984) 1080p H.265 [2UKR_ENG].
Format :
Format version : Version 4 / Version 2
File size : 4.65 GiB
Duration : 1 h 31 min
Overall bit rate : 7 283 kb/s
Encoded date : UTC 2018-04-13 21:07:28
Writing application : v22.0.0 ('At The End Of The World') 64-bit
Writing library : libebml v1.3.5 + v1.4.8

Video
ID : 1
Format : HEVC
Format/Info : High Efficiency Video Coding
Format profile : Main [email protected]@High
Codec ID : V_MPEGH/ISO/HEVC
Duration : 1 h 31 min
Bit rate : 6 460 kb/s
Width : 1 920 pixels
Height : 1 080 pixels
Display aspect ratio : 16:9
Frame rate mode : Constant
Frame rate : 23.976 (24000/1001) FPS
Color space : YUV
Chroma subsampling : 4:2:0
Bit depth : 10 bits
Bits/(Pixel*Frame) : 0.130
Stream size : 4.12 GiB (89%)
Writing library : x265 2.6+22-ff02513b92c0:[Windows][GCC 7.2.0][64 bit] 10bit
Encoding settings : cpuid=1050111 / frame-threads=4 / numa-pools=4 / wpp / no-pmode / no-pme / no-psnr / no-ssim / log-level=2 / input-csp=1 / input-res=1920x1080 / interlace=0 / total-frames=131252 / level-idc=41 / high-tier=1 / uhd-bd=0 / ref=5 / no-allow-non-conformance / no-repeat-headers / annexb / no-aud / no-hrd / info / hash=0 / no-temporal-layers / open-gop / min-keyint=23 / keyint=240 / gop-lookahead=0 / bframes=8 / b-adapt=2 / b-pyramid / bframe-bias=0 / rc-lookahead=40 / lookahead-slices=6 / scenecut=40 / radl=0 / no-intra-refresh / ctu=64 / min-cu-size=8 / rect / no-amp / max-tu-size=32 / tu-inter-depth=3 / tu-intra-depth=3 / limit-tu=0 / rdoq-level=0 / dynamic-rd=0.00 / no-ssim-rd / signhide / no-tskip / nr-intra=0 / nr-inter=0 / no-constrained-intra / no-strong-intra-smoothing / max-merge=3 / limit-refs=3 / no-limit-modes / me=3 / subme=7 / merange=57 / temporal-mvp / weightp / weightb / no-analyze-src-pics / deblock=-3:-3 / no-sao / no-sao-non-deblock / rd=4 / no-early-skip / rskip / no-fast-intra / no-tskip-fast / no-cu-lossless / no-b-intra / no-splitrd-skip / rdpenalty=0 / psy-rd=2.00 / psy-rdoq=0.00 / no-rd-refine / no-lossless / cbqpoffs=0 / crqpoffs=0 / rc=crf / crf=18.0 / qcomp=0.60 / qpstep=4 / stats-write=0 / stats-read=0 / vbv-maxrate=50000 / vbv-bufsize=50000 / vbv-init=0.9 / crf-max=0.0 / crf-min=0.0 / ipratio=1.40 / pbratio=1.30 / aq-mode=1 / aq-strength=1.00 / cutree / zone-count=0 / no-strict-cbr / qg-size=32 / no-rc-grain / qpmax=69 / qpmin=0 / no-const-vbv / sar=1 / overscan=0 / videoformat=5 / range=0 / colorprim=1 / transfer=1 / colormatrix=1 / chromaloc=0 / display-window=0 / max-cll=0,0 / min-luma=0 / max-luma=1023 / log2-max-poc-lsb=8 / vui-timing-info / vui-hrd-info / slices=1 / no-opt-qp-pps / no-opt-ref-list-length-pps / no-multi-pass-opt-rps / scenecut-bias=0.05 / no-opt-cu-delta-qp / no-aq-motion / no-hdr / no-hdr-opt / no-dhdr10-opt / analysis-save=(null) / analysis-load=(null) / analysis-reuse-level=5 / scale-factor=0 / refine-intra=0 / refine-inter=0 / refine-mv=0 / no-limit-sao / ctu-info=0 / no-lowpass-dct / refine-mv-type=0 / copy-pic=1
Language : English
Default : Yes
Forced : No
Color range : Limited
Color primaries : BT.709
Transfer characteristics : BT.709
Matrix coefficients : BT.709

Audio #1
ID : 2
Format : AC-3
Format/Info : Audio Coding 3
Codec ID : A_AC3
Duration : 1 h 31 min
Bit rate mode : Constant
Bit rate : 192 kb/s
Channel(s) : 2 channels
Channel positions : Front: L R
Sampling rate : 48.0 kHz
Frame rate : 31.250 FPS (1536 SPF)
Bit depth : 16 bits
Compression mode : Lossy
Stream size : 125 MiB (3%)
Title : 1+1
Language : Ukrainian
Service kind : Complete Main
Default : Yes
Forced : No

Audio #2
ID : 3
Format : AC-3
Format/Info : Audio Coding 3
Codec ID : A_AC3
Duration : 1 h 31 min
Bit rate mode : Constant
Bit rate : 192 kb/s
Channel(s) : 2 channels
Channel positions : Front: L R
Sampling rate : 48.0 kHz
Frame rate : 31.250 FPS (1536 SPF)
Bit depth : 16 bits
Compression mode : Lossy
Stream size : 125 MiB (3%)
Title : ICTV
Language : Ukrainian
Service kind : Complete Main
Default : No
Forced : No

Audio #3
ID : 4
Format : AC-3
Format/Info : Audio Coding 3
Codec ID : A_AC3
Duration : 1 h 31 min
Bit rate mode : Constant
Bit rate : 448 kb/s
Channel(s) : 6 channels
Channel positions : Front: L C R, Side: L R, LFE
Sampling rate : 48.0 kHz
Frame rate : 31.250 FPS (1536 SPF)
Bit depth : 16 bits
Compression mode : Lossy
Stream size : 292 MiB (6%)
Language : English
Service kind : Complete Main
Default : No
Forced : No

Text
ID : 5
Format : UTF-8
Codec ID : S_TEXT/UTF8
Codec ID/Info : UTF-8 Plain Text
Duration : 1 h 30 min
Bit rate : 44 b/s
Count of elements : 947
Stream size : 29.4 KiB (0%)
Language : English
Default : No
Forced : No

Menu
00:00:00.000 : en:00:00:00.000
00:03:48.590 : en:00:03:48.590
00:06:04.434 : en:00:06:04.434
00:08:23.990 : en:00:08:23.990
00:10:57.018 : en:00:10:57.018
00:15:01.054 : en:00:15:01.054
00:18:39.689 : en:00:18:39.689
00:20:40.643 : en:00:20:40.643
00:23:19.343 : en:00:23:19.343
00:29:40.432 : en:00:29:40.432
00:31:52.856 : en:00:31:52.856
00:34:35.894 : en:00:34:35.894
00:37:16.388 : en:00:37:16.388
00:43:26.424 : en:00:43:26.424
00:47:41.971 : en:00:47:41.971
00:51:42.712 : en:00:51:42.712
00:56:32.543 : en:00:56:32.543
00:59:04.528 : en:00:59:04.528
01:03:12.693 : en:01:03:12.693
01:08:15.370 : en:01:08:15.370
01:12:02.514 : en:01:12:02.514
01:15:47.655 : en:01:15:47.655
01:21:17.693 : en:01:21:17.693
01:25:39.038 : en:01:25:39.038
01:29:19.591 : en:01:29:19.591
Скріншоти



Джерело:
Особиста оцінка: 10 - без зайвих вагань рекомендую всім!
Жах на вулиці В’язів 2: Помста Фредді / A Nightmare on Elm Street Part 2: Freddy's Revenge (1985) 1080p H.265 2хUkr/Eng | Sub Eng
Жах на вулиці В’язів 2: Помста Фредді / A Nightmare on Elm Street Part 2: Freddy's Revenge (1985) 1080p H.265 2хUkr/Eng | Sub Eng

Жах на вулиці В’язів. Колекція / A Nightmare on Elm Street. Collection (1984-2010) 1080p H.265 Ukr/Eng | Sub Eng

Жанр: жахи
Країна: США



Кінокомпанія: New Line Cinema, Media Home Entertainment, Smart Egg Pictures
Режисер: Джек Шолдер (Jack Sholder)
Актори: Марк Паттон (Mark Patton), Кім Маєрс (Kim Myers), Роберт Раслер (Robert Rusler), Клу Ґулаґер (Clu Gulager), Гоп Ланґ (Hope Lange), Маршал Белл (Marshall Bell) та інші.

Сюжет:
Через п'ять років в будинок, де підлітків переслідували кошмари з кривавим вбивцею, в'їжджає нова сім'я, нічого не підозрюючи про погану славу цього котеджу.
Фредді Крюгер знов виникає в снах юного Джесі Велма і намагається заволодіти не лише його мозком, а й тілом. Подружка Джесі, Ліза, сподівається допомогти йому позбавитися від нав'язливого видіння.


Тривалість: 01:25:36
Якість:
Відео:
кодек: H.265 (HEVC)
розмір кадру: 1920 x 1080
бітрейт: 7 002 кб/с
бітова глибина: 10 біт
Увага! Перед завантаженням переконайтесь, що ваш пристрій відтворення (та/або ПЗ) підтримують H.265 (HEVC)

Аудіо # 1:
мова: українська
переклад: багатоголосий закадровий
кодек: 2.0
бітрейт: 192 кб/с

Аудіо # 2:
мова: українська
переклад: багатоголосий закадровий
кодек: 2.0
бітрейт: 192 кб/с

Аудіо # 3:
мова: англійська
переклад: оригінал
кодек: 5.1
бітрейт: 448 кб/с

Субтитри:
мова: англійська
тип: програмні (м'які)
формат: *.srt
Info
General
Unique ID : 90801819356524433566541426694357827182 (0x444FCB569CE33F05DF5D1B044CD4BE6E)
Complete name : E:\video\A Nightmare on Elm Street. Collection\2. A Nightmare on Elm Street Part 2. Freddy's Revenge (1985) 1080p H.265 [2UKR_ENG].
Format :
Format version : Version 4 / Version 2
File size : 4.69 GiB
Duration : 1 h 25 min
Overall bit rate : 7 836 kb/s
Encoded date : UTC 2018-04-13 21:12:56
Writing application : v22.0.0 ('At The End Of The World') 64-bit
Writing library : libebml v1.3.5 + v1.4.8

Video
ID : 1
Format : HEVC
Format/Info : High Efficiency Video Coding
Format profile : Main [email protected]@High
Codec ID : V_MPEGH/ISO/HEVC
Duration : 1 h 25 min
Bit rate : 7 002 kb/s
Width : 1 920 pixels
Height : 1 080 pixels
Display aspect ratio : 16:9
Frame rate mode : Constant
Frame rate : 23.976 (24000/1001) FPS
Color space : YUV
Chroma subsampling : 4:2:0
Bit depth : 10 bits
Bits/(Pixel*Frame) : 0.141
Stream size : 4.19 GiB (89%)
Writing library : x265 2.7+8-613d9f443769:[Windows][GCC 8.0.1][64 bit] 10bit
Encoding settings : cpuid=1050111 / frame-threads=4 / numa-pools=4 / wpp / no-pmode / no-pme / no-psnr / no-ssim / log-level=2 / input-csp=1 / input-res=1920x1080 / interlace=0 / total-frames=123169 / level-idc=0 / high-tier=1 / uhd-bd=0 / ref=5 / no-allow-non-conformance / no-repeat-headers / annexb / no-aud / no-hrd / info / hash=0 / no-temporal-layers / open-gop / min-keyint=24 / keyint=240 / gop-lookahead=0 / bframes=8 / b-adapt=2 / b-pyramid / bframe-bias=0 / rc-lookahead=40 / lookahead-slices=4 / scenecut=40 / radl=0 / no-intra-refresh / ctu=64 / min-cu-size=8 / rect / no-amp / max-tu-size=32 / tu-inter-depth=3 / tu-intra-depth=3 / limit-tu=4 / rdoq-level=1 / dynamic-rd=0.00 / no-ssim-rd / signhide / no-tskip / nr-intra=0 / nr-inter=0 / no-constrained-intra / no-strong-intra-smoothing / max-merge=3 / limit-refs=2 / limit-modes / me=3 / subme=7 / merange=57 / temporal-mvp / weightp / weightb / no-analyze-src-pics / deblock=-3:-3 / no-sao / no-sao-non-deblock / rd=4 / no-early-skip / rskip / no-fast-intra / no-tskip-fast / no-cu-lossless / no-b-intra / no-splitrd-skip / rdpenalty=0 / psy-rd=2.00 / psy-rdoq=1.00 / no-rd-refine / no-lossless / cbqpoffs=0 / crqpoffs=0 / rc=crf / crf=19.0 / qcomp=0.60 / qpstep=4 / stats-write=0 / stats-read=0 / vbv-maxrate=50000 / vbv-bufsize=50000 / vbv-init=0.9 / crf-max=0.0 / crf-min=0.0 / ipratio=1.40 / pbratio=1.30 / aq-mode=1 / aq-strength=1.00 / cutree / zone-count=0 / no-strict-cbr / qg-size=32 / no-rc-grain / qpmax=69 / qpmin=0 / no-const-vbv / sar=1 / overscan=0 / videoformat=5 / range=0 / colorprim=1 / transfer=1 / colormatrix=1 / chromaloc=0 / display-window=0 / max-cll=0,0 / min-luma=0 / max-luma=1023 / log2-max-poc-lsb=8 / vui-timing-info / vui-hrd-info / slices=1 / no-opt-qp-pps / no-opt-ref-list-length-pps / no-multi-pass-opt-rps / scenecut-bias=0.05 / no-opt-cu-delta-qp / no-aq-motion / no-hdr / no-hdr-opt / no-dhdr10-opt / analysis-reuse-level=5 / scale-factor=0 / refine-intra=0 / refine-inter=0 / refine-mv=0 / no-limit-sao / ctu-info=0 / no-lowpass-dct / refine-mv-type=0 / copy-pic=1 / max-ausize-factor=1.0
Language : English
Default : Yes
Forced : No
Color range : Limited
Color primaries : BT.709
Transfer characteristics : BT.709
Matrix coefficients : BT.709

Audio #1
ID : 2
Format : AC-3
Format/Info : Audio Coding 3
Codec ID : A_AC3
Duration : 1 h 25 min
Bit rate mode : Constant
Bit rate : 192 kb/s
Channel(s) : 2 channels
Channel positions : Front: L R
Sampling rate : 48.0 kHz
Frame rate : 31.250 FPS (1536 SPF)
Bit depth : 16 bits
Compression mode : Lossy
Stream size : 118 MiB (2%)
Title : 1+1
Language : Ukrainian
Service kind : Complete Main
Default : Yes
Forced : No

Audio #2
ID : 3
Format : AC-3
Format/Info : Audio Coding 3
Codec ID : A_AC3
Duration : 1 h 25 min
Bit rate mode : Constant
Bit rate : 192 kb/s
Channel(s) : 2 channels
Channel positions : Front: L R
Sampling rate : 48.0 kHz
Frame rate : 31.250 FPS (1536 SPF)
Bit depth : 16 bits
Compression mode : Lossy
Stream size : 118 MiB (2%)
Title : ICTV
Language : Ukrainian
Service kind : Complete Main
Default : No
Forced : No

Audio #3
ID : 4
Format : AC-3
Format/Info : Audio Coding 3
Codec ID : A_AC3
Duration : 1 h 25 min
Bit rate mode : Constant
Bit rate : 448 kb/s
Channel(s) : 6 channels
Channel positions : Front: L C R, Side: L R, LFE
Sampling rate : 48.0 kHz
Frame rate : 31.250 FPS (1536 SPF)
Bit depth : 16 bits
Compression mode : Lossy
Stream size : 274 MiB (6%)
Language : English
Service kind : Complete Main
Default : No
Forced : No

Text
ID : 5
Format : UTF-8
Codec ID : S_TEXT/UTF8
Codec ID/Info : UTF-8 Plain Text
Duration : 1 h 25 min
Bit rate : 36 b/s
Count of elements : 878
Stream size : 23.0 KiB (0%)
Language : English
Default : No
Forced : No

Menu
00:00:00.000 : en:00:00:00.000
00:06:42.777 : en:00:06:42.777
00:08:30.260 : en:00:08:30.260
00:12:03.932 : en:00:12:03.932
00:16:01.836 : en:00:16:01.836
00:18:02.415 : en:00:18:02.415
00:23:02.673 : en:00:23:02.673
00:26:25.751 : en:00:26:25.751
00:27:58.260 : en:00:27:58.260
00:30:40.505 : en:00:30:40.505
00:33:11.489 : en:00:33:11.489
00:37:27.454 : en:00:37:27.454
00:40:01.441 : en:00:40:01.441
00:42:59.619 : en:00:42:59.619
00:46:07.390 : en:00:46:07.390
00:49:09.572 : en:00:49:09.572
00:54:03.532 : en:00:54:03.532
00:57:33.450 : en:00:57:33.450
01:01:30.520 : en:01:01:30.520
01:04:21.733 : en:01:04:21.733
01:08:07.667 : en:01:08:07.667
01:11:15.605 : en:01:11:15.605
01:14:57.576 : en:01:14:57.576
01:17:30.145 : en:01:17:30.145
01:20:32.411 : en:01:20:32.411
01:22:49.965 : en:01:22:49.965
Скріншоти



Джерело:
Особиста оцінка: 10 - без зайвих вагань рекомендую всім!
Жах на вулиці В’язів 3: Воїни снів / A Nightmare on Elm Street 3: Dream Warriors (1987) 1080p H.265 2хUkr/Eng | Sub Eng
Жах на вулиці В’язів 3: Воїни снів / A Nightmare on Elm Street 3: Dream Warriors (1987) 1080p H.265 2хUkr/Eng | Sub Eng

Жах на вулиці В’язів. Колекція / A Nightmare on Elm Street. Collection (1984-2010) 1080p H.265 Ukr/Eng | Sub Eng

Жанр: жахи
Країна: США



Кінокомпанія: New Line Cinema, Heron Communications, Smart Egg Pictures
Режисер: Чак Рассел (Chuck Russell)
Актори: Крейґ Вассон (Craig Wasson), Патріція Аркетт (Patricia Arquette), Гізер Ленґенкемп (Heather Langenkamp), Роберт Енґлунд (Robert Englund), Кен Саґос (Ken Sagoes), Лоуренс Фішборн (Laurence Fishburne) та інші.

Сюжет:
Події відбуваються через шість років після першої появи Фредда Крюґера. Він став набагато сильнішим, підживлюючи душами дітей з вулиці В'язів. Тепер він звернув увагу на сімох діточок, укладених в психіатричній лікарні.
Становище ускладнюється повальними «самогубствами», яке, зрозуміло, є витівками Фредді. Вирішити ситуацію і пояснити що відбувається може лише Ненсі Томпсон, яка повернулася в рідне місто в якості лікаря-практиканта ...


Тривалість: 01:36:31
Якість:
Відео:
кодек: H.265 (HEVC)
розмір кадру: 1920 x 1080
бітрейт: 7 921 кб/с
бітова глибина: 10 біт
Увага! Перед завантаженням переконайтесь, що ваш пристрій відтворення (та/або ПЗ) підтримують H.265 (HEVC)

Аудіо # 1:
мова: українська
переклад: багатоголосий закадровий
кодек: 2.0
бітрейт: 192 кб/с

Аудіо # 2:
мова: українська
переклад: багатоголосий закадровий
кодек: 2.0
бітрейт: 192 кб/с

Аудіо # 3:
мова: англійська
переклад: оригінал
кодек: 5.1
бітрейт: 448 кб/с

Субтитри:
мова: англійська
тип: програмні (м'які)
формат: *.srt
Info
General
Unique ID : 257684397675624171967103542635366021788 (0xC1DC35B36338C8896CAD9520D7B57A9C)
Complete name : E:\video\A Nightmare on Elm Street. Collection\3. A Nightmare on Elm Street Part 3. Dream Warriors (1987) 1080p H.265 [2UKR_ENG].
Format :
Format version : Version 4 / Version 2
File size : 5.90 GiB
Duration : 1 h 36 min
Overall bit rate : 8 756 kb/s
Encoded date : UTC 2018-04-13 22:30:54
Writing application : v22.0.0 ('At The End Of The World') 64-bit
Writing library : libebml v1.3.5 + v1.4.8

Video
ID : 1
Format : HEVC
Format/Info : High Efficiency Video Coding
Format profile : Main [email protected]@High
Codec ID : V_MPEGH/ISO/HEVC
Duration : 1 h 36 min
Bit rate : 7 921 kb/s
Width : 1 920 pixels
Height : 1 080 pixels
Display aspect ratio : 16:9
Frame rate mode : Constant
Frame rate : 23.976 (24000/1001) FPS
Color space : YUV
Chroma subsampling : 4:2:0
Bit depth : 10 bits
Bits/(Pixel*Frame) : 0.159
Stream size : 5.34 GiB (90%)
Writing library : x265 2.7+8-613d9f443769:[Windows][GCC 8.0.1][64 bit] 10bit
Encoding settings : cpuid=1050111 / frame-threads=4 / numa-pools=4 / wpp / no-pmode / no-pme / no-psnr / no-ssim / log-level=2 / input-csp=1 / input-res=1920x1080 / interlace=0 / total-frames=138865 / level-idc=0 / high-tier=1 / uhd-bd=0 / ref=5 / no-allow-non-conformance / no-repeat-headers / annexb / no-aud / no-hrd / info / hash=0 / no-temporal-layers / open-gop / min-keyint=24 / keyint=240 / gop-lookahead=0 / bframes=10 / b-adapt=2 / b-pyramid / bframe-bias=0 / rc-lookahead=40 / lookahead-slices=4 / scenecut=40 / radl=0 / no-intra-refresh / ctu=64 / min-cu-size=8 / rect / no-amp / max-tu-size=32 / tu-inter-depth=3 / tu-intra-depth=3 / limit-tu=4 / rdoq-level=1 / dynamic-rd=0.00 / no-ssim-rd / signhide / no-tskip / nr-intra=0 / nr-inter=0 / no-constrained-intra / no-strong-intra-smoothing / max-merge=3 / limit-refs=2 / limit-modes / me=3 / subme=7 / merange=57 / temporal-mvp / weightp / weightb / no-analyze-src-pics / deblock=-3:-3 / no-sao / no-sao-non-deblock / rd=4 / no-early-skip / rskip / no-fast-intra / no-tskip-fast / no-cu-lossless / no-b-intra / no-splitrd-skip / rdpenalty=0 / psy-rd=2.00 / psy-rdoq=1.00 / no-rd-refine / no-lossless / cbqpoffs=0 / crqpoffs=0 / rc=crf / crf=18.0 / qcomp=0.60 / qpstep=4 / stats-write=0 / stats-read=0 / vbv-maxrate=50000 / vbv-bufsize=50000 / vbv-init=0.9 / crf-max=0.0 / crf-min=0.0 / ipratio=1.40 / pbratio=1.30 / aq-mode=1 / aq-strength=1.00 / cutree / zone-count=0 / no-strict-cbr / qg-size=32 / no-rc-grain / qpmax=69 / qpmin=0 / no-const-vbv / sar=1 / overscan=0 / videoformat=5 / range=0 / colorprim=1 / transfer=1 / colormatrix=1 / chromaloc=0 / display-window=0 / max-cll=0,0 / min-luma=0 / max-luma=1023 / log2-max-poc-lsb=8 / vui-timing-info / vui-hrd-info / slices=1 / no-opt-qp-pps / no-opt-ref-list-length-pps / no-multi-pass-opt-rps / scenecut-bias=0.05 / no-opt-cu-delta-qp / no-aq-motion / no-hdr / no-hdr-opt / no-dhdr10-opt / analysis-reuse-level=5 / scale-factor=0 / refine-intra=0 / refine-inter=0 / refine-mv=0 / no-limit-sao / ctu-info=0 / no-lowpass-dct / refine-mv-type=0 / copy-pic=1 / max-ausize-factor=1.0
Language : English
Default : Yes
Forced : No
Color range : Limited
Color primaries : BT.709
Transfer characteristics : BT.709
Matrix coefficients : BT.709

Audio #1
ID : 2
Format : AC-3
Format/Info : Audio Coding 3
Codec ID : A_AC3
Duration : 1 h 36 min
Bit rate mode : Constant
Bit rate : 192 kb/s
Channel(s) : 2 channels
Channel positions : Front: L R
Sampling rate : 48.0 kHz
Frame rate : 31.250 FPS (1536 SPF)
Bit depth : 16 bits
Compression mode : Lossy
Stream size : 133 MiB (2%)
Title : 1+1
Language : Ukrainian
Service kind : Complete Main
Default : Yes
Forced : No

Audio #2
ID : 3
Format : AC-3
Format/Info : Audio Coding 3
Codec ID : A_AC3
Duration : 1 h 36 min
Bit rate mode : Constant
Bit rate : 192 kb/s
Channel(s) : 2 channels
Channel positions : Front: L R
Sampling rate : 48.0 kHz
Frame rate : 31.250 FPS (1536 SPF)
Bit depth : 16 bits
Compression mode : Lossy
Stream size : 133 MiB (2%)
Title : ICTV
Language : Ukrainian
Service kind : Complete Main
Default : No
Forced : No

Audio #3
ID : 4
Format : AC-3
Format/Info : Audio Coding 3
Codec ID : A_AC3
Duration : 1 h 36 min
Bit rate mode : Constant
Bit rate : 448 kb/s
Channel(s) : 6 channels
Channel positions : Front: L C R, Side: L R, LFE
Sampling rate : 48.0 kHz
Frame rate : 31.250 FPS (1536 SPF)
Bit depth : 16 bits
Compression mode : Lossy
Stream size : 309 MiB (5%)
Language : English
Service kind : Complete Main
Default : No
Forced : No

Text
ID : 5
Format : UTF-8
Codec ID : S_TEXT/UTF8
Codec ID/Info : UTF-8 Plain Text
Duration : 1 h 29 min
Bit rate : 52 b/s
Count of elements : 1082
Stream size : 34.2 KiB (0%)
Language : English
Default : No
Forced : No
Скріншоти



Джерело:
Особиста оцінка: 10 - без зайвих вагань рекомендую всім!
Жах на вулиці В'язів 4: Повелитель сну / A Nightmare on Elm Street 4: The Dream Master (1988) 1080p H.265 2xUkr/Eng | Sub Eng
Жах на вулиці В'язів 4: Повелитель сну / A Nightmare on Elm Street 4: The Dream Master (1988) 1080p H.265 2xUkr/Eng | Sub Eng

Жах на вулиці В’язів. Колекція / A Nightmare on Elm Street. Collection (1984-2010) 1080p H.265 Ukr/Eng | Sub Eng

Жанр: жахи
Країна: США



Кінокомпанія: New Line Cinema
Режисер: Ренні Харлін
Актори: Роберт Енглунд, Родні Істман, Денні Хессел, Андраш Джоунс, Ліза Уілкокс, Т’юзді Найт

Сюжет:
Фредді зіштовхується з новим потужним супротивником. Фредді тепер наводить жах на друзів-підлітків, що залишилися живими, розпочавши із Еліс. Але спершу, слабка та вразлива дівчина набралася сил від загиблих друзів і продемонструвала чудеса винахідливості й мужності у битві із Фредді, показавши себе як гідного та потужного супротивника...


Тривалість: 01:33:15
Якість:
Відео:
кодек: H.265 (HEVC)
розмір кадру: 1920 x 1080
бітрейт: 8 051 кб/с
бітова глибина: 10 біт
Увага! Перед завантаженням переконайтесь, що ваш пристрій відтворення (та/або ПЗ) підтримують H.265 (HEVC)

Аудіо # 1:
мова: українська
переклад: багатоголосий закадровий
кодек: 2.0
бітрейт: 192 кб/с

Аудіо # 2:
мова: українська
переклад: багатоголосий закадровий
кодек: 2.0
бітрейт: 192 кб/с

Аудіо # 3:
мова: англійська
переклад: оригінал
кодек: 5.1
бітрейт: 448 кб/с

Субтитри:
мова: англійська
тип: програмні (м'які)
формат: *.srt
Info
General
Unique ID : 206563127114043534270810128871112838123 (0x9B669C770C27734BC39C184089300BEB)
Complete name : E:\video\A Nightmare on Elm Street. Collection\4. A Nightmare on Elm Street Part 4. The Dream Master (1988) 1080p H.265 [2UKR_ENG].
Format :
Format version : Version 4 / Version 2
File size : 5.79 GiB
Duration : 1 h 33 min
Overall bit rate : 8 886 kb/s
Encoded date : UTC 2018-04-19 08:55:04
Writing application : v22.0.0 ('At The End Of The World') 64-bit
Writing library : libebml v1.3.5 + v1.4.8

Video
ID : 1
Format : HEVC
Format/Info : High Efficiency Video Coding
Format profile : Main [email protected]@High
Codec ID : V_MPEGH/ISO/HEVC
Duration : 1 h 33 min
Bit rate : 8 051 kb/s
Width : 1 920 pixels
Height : 1 080 pixels
Display aspect ratio : 16:9
Frame rate mode : Constant
Frame rate : 23.976 (24000/1001) FPS
Color space : YUV
Chroma subsampling : 4:2:0
Bit depth : 10 bits
Bits/(Pixel*Frame) : 0.162
Stream size : 5.24 GiB (91%)
Writing library : x265 2.7+8-613d9f443769:[Windows][GCC 8.0.1][64 bit] 10bit
Encoding settings : cpuid=1050111 / frame-threads=4 / numa-pools=4 / wpp / no-pmode / no-pme / no-psnr / no-ssim / log-level=2 / input-csp=1 / input-res=1920x1080 / interlace=0 / total-frames=134149 / level-idc=0 / high-tier=1 / uhd-bd=0 / ref=5 / no-allow-non-conformance / no-repeat-headers / annexb / no-aud / no-hrd / info / hash=0 / no-temporal-layers / open-gop / min-keyint=24 / keyint=240 / gop-lookahead=0 / bframes=10 / b-adapt=2 / b-pyramid / bframe-bias=0 / rc-lookahead=40 / lookahead-slices=4 / scenecut=40 / radl=0 / no-intra-refresh / ctu=64 / min-cu-size=8 / rect / no-amp / max-tu-size=32 / tu-inter-depth=3 / tu-intra-depth=3 / limit-tu=4 / rdoq-level=1 / dynamic-rd=0.00 / no-ssim-rd / signhide / no-tskip / nr-intra=0 / nr-inter=0 / no-constrained-intra / no-strong-intra-smoothing / max-merge=3 / limit-refs=2 / limit-modes / me=3 / subme=7 / merange=57 / temporal-mvp / weightp / weightb / no-analyze-src-pics / deblock=-3:-3 / no-sao / no-sao-non-deblock / rd=4 / no-early-skip / rskip / no-fast-intra / no-tskip-fast / no-cu-lossless / no-b-intra / no-splitrd-skip / rdpenalty=0 / psy-rd=2.00 / psy-rdoq=1.00 / no-rd-refine / no-lossless / cbqpoffs=0 / crqpoffs=0 / rc=crf / crf=18.0 / qcomp=0.60 / qpstep=4 / stats-write=0 / stats-read=0 / vbv-maxrate=50000 / vbv-bufsize=50000 / vbv-init=0.9 / crf-max=0.0 / crf-min=0.0 / ipratio=1.40 / pbratio=1.30 / aq-mode=1 / aq-strength=1.00 / cutree / zone-count=0 / no-strict-cbr / qg-size=32 / no-rc-grain / qpmax=69 / qpmin=0 / no-const-vbv / sar=1 / overscan=0 / videoformat=5 / range=0 / colorprim=1 / transfer=1 / colormatrix=1 / chromaloc=0 / display-window=0 / max-cll=0,0 / min-luma=0 / max-luma=1023 / log2-max-poc-lsb=8 / vui-timing-info / vui-hrd-info / slices=1 / no-opt-qp-pps / no-opt-ref-list-length-pps / no-multi-pass-opt-rps / scenecut-bias=0.05 / no-opt-cu-delta-qp / no-aq-motion / no-hdr / no-hdr-opt / no-dhdr10-opt / analysis-reuse-level=5 / scale-factor=0 / refine-intra=0 / refine-inter=0 / refine-mv=0 / no-limit-sao / ctu-info=0 / no-lowpass-dct / refine-mv-type=0 / copy-pic=1 / max-ausize-factor=1.0
Language : English
Default : Yes
Forced : No
Color range : Limited
Color primaries : BT.709
Transfer characteristics : BT.709
Matrix coefficients : BT.709

Audio #1
ID : 2
Format : AC-3
Format/Info : Audio Coding 3
Codec ID : A_AC3
Duration : 1 h 33 min
Bit rate mode : Constant
Bit rate : 192 kb/s
Channel(s) : 2 channels
Channel positions : Front: L R
Sampling rate : 48.0 kHz
Frame rate : 31.250 FPS (1536 SPF)
Bit depth : 16 bits
Compression mode : Lossy
Stream size : 128 MiB (2%)
Title : Novy Kanal
Language : Ukrainian
Service kind : Complete Main
Default : Yes
Forced : No

Audio #2
ID : 3
Format : AC-3
Format/Info : Audio Coding 3
Codec ID : A_AC3
Duration : 1 h 33 min
Bit rate mode : Constant
Bit rate : 192 kb/s
Channel(s) : 2 channels
Channel positions : Front: L R
Sampling rate : 48.0 kHz
Frame rate : 31.250 FPS (1536 SPF)
Bit depth : 16 bits
Compression mode : Lossy
Stream size : 128 MiB (2%)
Title : ICTV
Language : Ukrainian
Service kind : Complete Main
Default : No
Forced : No

Audio #3
ID : 4
Format : AC-3
Format/Info : Audio Coding 3
Codec ID : A_AC3
Duration : 1 h 33 min
Bit rate mode : Constant
Bit rate : 448 kb/s
Channel(s) : 6 channels
Channel positions : Front: L C R, Side: L R, LFE
Sampling rate : 48.0 kHz
Frame rate : 31.250 FPS (1536 SPF)
Bit depth : 16 bits
Compression mode : Lossy
Stream size : 299 MiB (5%)
Title : Original
Language : English
Service kind : Complete Main
Default : No
Forced : No

Text
ID : 5
Format : UTF-8
Codec ID : S_TEXT/UTF8
Codec ID/Info : UTF-8 Plain Text
Duration : 1 h 30 min
Bit rate : 37 b/s
Count of elements : 806
Stream size : 24.6 KiB (0%)
Language : English
Default : No
Forced : No

Menu
00:00:00.000 : en:00:00:00.000
00:04:57.297 : en:00:04:57.297
00:07:20.732 : en:00:07:20.732
00:12:11.189 : en:00:12:11.189
00:15:29.387 : en:00:15:29.387
00:20:33.816 : en:00:20:33.816
00:23:06.010 : en:00:23:06.010
00:25:09.174 : en:00:25:09.174
00:28:01.013 : en:00:28:01.013
00:30:48.764 : en:00:30:48.764
00:32:55.599 : en:00:32:55.599
00:35:07.439 : en:00:35:07.439
00:39:39.919 : en:00:39:39.919
00:43:26.103 : en:00:43:26.103
00:46:58.607 : en:00:46:58.607
00:53:03.347 : en:00:53:03.347
00:55:31.286 : en:00:55:31.286
00:58:28.922 : en:00:58:28.922
01:02:06.514 : en:01:02:06.514
01:05:02.982 : en:01:05:02.982
01:07:36.177 : en:01:07:36.177
01:11:54.143 : en:01:11:54.143
01:14:30.466 : en:01:14:30.466
01:19:13.248 : en:01:19:13.248
01:22:28.360 : en:01:22:28.360
01:25:53.148 : en:01:25:53.148
01:27:00.799 : en:01:27:00.799
Скріншоти



Джерело:
Особиста оцінка: 10 - без зайвих вагань рекомендую всім!
Жах на вулиці В'язів 5: Дитина сну / A Nightmare on Elm Street: The Dream Child (1989) 1080p H.265 Ukr/Eng | Sub Eng
Жах на вулиці В'язів 5: Дитина сну / A Nightmare on Elm Street: The Dream Child (1989) 1080p H.265 Ukr/Eng | Sub Eng

Жах на вулиці В’язів. Колекція / A Nightmare on Elm Street. Collection (1984-2010) 1080p H.265 Ukr/Eng | Sub Eng

Жанр: жахи, містика, трилер
Країна: США



Кінокомпанія: New Line Cinema
Режисер: Стівен Хопкінс
Актори: Роберт Інглунд, Ліза Вілкокс, Еріка Андерсон, Велорі Армстронг.

Сюжет:
Непереможній дітовбивця, який в п'ятій частині навіть оголошує себе Супер-Фредді, примудряється відродитися в дитину, що знаходиться в утробі матері. Єдиний шанс врятувати дитину — знайти непоховане тіло черниці Аманди Крюгер, породившої на світ таке чудовисько як Фредді, щоб його знищити. Фантастична і феєрична картина з неймовірними перетвореннями за допомогою складного гриму з візуальними та комп'ютерними ефектами...


Тривалість: 01:29:40
Якість:
Відео:
кодек: H.265 (HEVC)
розмір кадру: 1920 x 1080
бітрейт: 7 490 кб/с
бітова глибина: 10 біт
Увага! Перед завантаженням переконайтесь, що ваш пристрій відтворення (та/або ПЗ) підтримують H.265 (HEVC)

Аудіо # 1:
мова: українська
переклад: багатоголосий закадровий
кодек: 5.1
бітрейт: 448 кб/с

Аудіо # 2:
мова: англійська
переклад: оригінал
кодек: 5.1
бітрейт: 448 кб/с

Субтитри:
мова: англійська
тип: програмні (м'які)
формат: *.srt
Info
General
Unique ID : 261219367612353826118350619299548723058 (0xC485052CBC2D5B2CB8EAD29A0A577772)
Complete name : E:\video\A Nightmare on Elm Street. Collection\5. A Nightmare on Elm Street Part 5. The Dream Child (1989) 1080p H.265 [UKR_ENG].
Format :
Format version : Version 4 / Version 2
File size : 5.25 GiB
Duration : 1 h 29 min
Overall bit rate : 8 381 kb/s
Encoded date : UTC 2018-04-20 19:21:16
Writing application : v22.0.0 ('At The End Of The World') 64-bit
Writing library : libebml v1.3.5 + v1.4.8

Video
ID : 1
Format : HEVC
Format/Info : High Efficiency Video Coding
Format profile : Main [email protected]@High
Codec ID : V_MPEGH/ISO/HEVC
Duration : 1 h 29 min
Bit rate : 7 490 kb/s
Width : 1 920 pixels
Height : 1 080 pixels
Display aspect ratio : 16:9
Frame rate mode : Constant
Frame rate : 23.976 (24000/1001) FPS
Color space : YUV
Chroma subsampling : 4:2:0
Bit depth : 10 bits
Bits/(Pixel*Frame) : 0.151
Stream size : 4.69 GiB (89%)
Writing library : x265 2.7+8-613d9f443769:[Windows][GCC 8.0.1][64 bit] 10bit
Encoding settings : cpuid=1050111 / frame-threads=4 / numa-pools=4 / wpp / no-pmode / no-pme / no-psnr / no-ssim / log-level=2 / input-csp=1 / input-res=1920x1080 / interlace=0 / total-frames=128953 / level-idc=0 / high-tier=1 / uhd-bd=0 / ref=5 / no-allow-non-conformance / no-repeat-headers / annexb / no-aud / no-hrd / info / hash=0 / no-temporal-layers / open-gop / min-keyint=24 / keyint=240 / gop-lookahead=0 / bframes=8 / b-adapt=2 / b-pyramid / bframe-bias=0 / rc-lookahead=40 / lookahead-slices=4 / scenecut=40 / radl=0 / no-intra-refresh / ctu=64 / min-cu-size=8 / rect / no-amp / max-tu-size=32 / tu-inter-depth=3 / tu-intra-depth=3 / limit-tu=4 / rdoq-level=1 / dynamic-rd=0.00 / no-ssim-rd / signhide / no-tskip / nr-intra=0 / nr-inter=0 / no-constrained-intra / no-strong-intra-smoothing / max-merge=3 / limit-refs=2 / limit-modes / me=3 / subme=7 / merange=57 / temporal-mvp / weightp / weightb / no-analyze-src-pics / deblock=-3:-3 / no-sao / no-sao-non-deblock / rd=4 / no-early-skip / rskip / no-fast-intra / no-tskip-fast / no-cu-lossless / no-b-intra / no-splitrd-skip / rdpenalty=0 / psy-rd=2.00 / psy-rdoq=1.00 / no-rd-refine / no-lossless / cbqpoffs=0 / crqpoffs=0 / rc=crf / crf=18.0 / qcomp=0.60 / qpstep=4 / stats-write=0 / stats-read=0 / vbv-maxrate=50000 / vbv-bufsize=50000 / vbv-init=0.9 / crf-max=0.0 / crf-min=0.0 / ipratio=1.40 / pbratio=1.30 / aq-mode=1 / aq-strength=1.00 / cutree / zone-count=0 / no-strict-cbr / qg-size=32 / no-rc-grain / qpmax=69 / qpmin=0 / no-const-vbv / sar=1 / overscan=0 / videoformat=5 / range=0 / colorprim=1 / transfer=1 / colormatrix=1 / chromaloc=0 / display-window=0 / max-cll=0,0 / min-luma=0 / max-luma=1023 / log2-max-poc-lsb=8 / vui-timing-info / vui-hrd-info / slices=1 / no-opt-qp-pps / no-opt-ref-list-length-pps / no-multi-pass-opt-rps / scenecut-bias=0.05 / no-opt-cu-delta-qp / no-aq-motion / no-hdr / no-hdr-opt / no-dhdr10-opt / analysis-reuse-level=5 / scale-factor=0 / refine-intra=0 / refine-inter=0 / refine-mv=0 / no-limit-sao / ctu-info=0 / no-lowpass-dct / refine-mv-type=0 / copy-pic=1 / max-ausize-factor=1.0
Language : English
Default : Yes
Forced : No
Color range : Limited
Color primaries : BT.709
Transfer characteristics : BT.709
Matrix coefficients : BT.709

Audio #1
ID : 2
Format : AC-3
Format/Info : Audio Coding 3
Codec ID : A_AC3
Duration : 1 h 29 min
Bit rate mode : Constant
Bit rate : 448 kb/s
Channel(s) : 6 channels
Channel positions : Front: L C R, Side: L R, LFE
Sampling rate : 48.0 kHz
Frame rate : 31.250 FPS (1536 SPF)
Bit depth : 16 bits
Compression mode : Lossy
Delay relative to video : 3 s 0 ms
Stream size : 287 MiB (5%)
Language : Ukrainian
Service kind : Complete Main
Default : Yes
Forced : No

Audio #2
ID : 3
Format : AC-3
Format/Info : Audio Coding 3
Codec ID : A_AC3
Duration : 1 h 29 min
Bit rate mode : Constant
Bit rate : 448 kb/s
Channel(s) : 6 channels
Channel positions : Front: L C R, Side: L R, LFE
Sampling rate : 48.0 kHz
Frame rate : 31.250 FPS (1536 SPF)
Bit depth : 16 bits
Compression mode : Lossy
Stream size : 287 MiB (5%)
Language : English
Service kind : Complete Main
Default : No
Forced : No

Text
ID : 4
Format : UTF-8
Codec ID : S_TEXT/UTF8
Codec ID/Info : UTF-8 Plain Text
Duration : 1 h 24 min
Bit rate : 42 b/s
Count of elements : 883
Stream size : 26.3 KiB (0%)
Language : English
Default : No
Forced : No

Menu
00:00:00.000 : en:00:00:00.000
00:03:24.037 : en:00:03:24.037
00:08:21.835 : en:00:08:21.835
00:12:50.812 : en:00:12:50.812
00:16:34.118 : en:00:16:34.118
00:22:57.668 : en:00:22:57.668
00:27:37.239 : en:00:27:37.239
00:30:17.899 : en:00:30:17.899
00:35:19.534 : en:00:35:19.534
00:38:21.591 : en:00:38:21.591
00:41:58.433 : en:00:41:58.433
00:44:50.771 : en:00:44:50.771
00:49:40.853 : en:00:49:40.853
00:53:36.713 : en:00:53:36.713
00:58:30.966 : en:00:58:30.966
01:00:41.721 : en:01:00:41.721
01:04:53.765 : en:01:04:53.765
01:09:32.168 : en:01:09:32.168
01:12:02.818 : en:01:12:02.818
01:15:42.955 : en:01:15:42.955
01:19:08.619 : en:01:19:08.619
01:23:22.414 : en:01:23:22.414
01:24:20.305 : en:01:24:20.305
Скріншоти



Джерело:
Особиста оцінка: 10 - без зайвих вагань рекомендую всім!
Фредді проти Джейсона / Freddy vs. Jason (2003) 1080p H.265 Ukr/Eng | Sub Eng
Фредді проти Джейсона / Freddy vs. Jason (2003) 1080p H.265 Ukr/Eng | Sub Eng

Жах на вулиці В’язів. Колекція / A Nightmare on Elm Street. Collection (1984-2010) 1080p H.265 Ukr/Eng | Sub Eng

Жанр: трилер, жахи
Країна: США / USA, Canada / Канада



Кінокомпанія: New Line Cinema
Режисер: Ронні Ю
Актори: Роберт Інглунд, Кен Кірзінгер, Моніка Кіна, Джейсон Ріттер, Келлі Роуленд, Кріс Маркетт, Брендан Флетчер, Кетрін Ізабелль, Локлін Манро, Кайл Лебін

Сюжет:
Фреді Крюгер доведений до відчаю: він більше не може вбивати. Лише використовуючи незграбного серійного вбивцю Джейсона Вурхиса, Фреді вдається винищувати дітей з вулиці В'язів. Але коли Джейсон починає розуміти, що ним просто маніпулюють, плани Фреді можуть зламатися. Тепер справа за тінейджерами Уілом, Лорі та Кією. Якимсь чином їм треба змусити Джейсона раз і назавжди вбити Крюгера...



Тривалість: 01:37:20
Якість:
Відео:
кодек: H.265 (HEVC)
розмір кадру: 1920 x 814
бітрейт: 6 204 кб/с
бітова глибина: 10 біт
Увага! Перед завантаженням переконайтесь, що ваш пристрій відтворення (та/або ПЗ) підтримують H.265 (HEVC)

Аудіо # 1:
мова: українська
переклад: багатоголосий закадровий
кодек: 5.1
бітрейт: 384 кб/с

Аудіо # 2:
мова: англійська
переклад: оригінал
кодек: 5.1
бітрейт: 384 кб/с

Субтитри:
мова: англійська
тип: програмні (м'які)
формат: *.srt
Info

General
Unique ID : 160585086423793687400502826370456109828 (0x78CF900A42A28CF8AFD245E8075C4304)
Complete name : E:\video\A Nightmare on Elm Street. Collection\8. Freddy vs. Jason (2003) 1080p H.265 [UKR_ENG].
Format :
Format version : Version 4 / Version 2
File size : 4.74 GiB
Duration : 1 h 37 min
Overall bit rate : 6 975 kb/s
Movie name : Freddy vs. Jason (2003)_rip_by_Cthulhu
Encoded date : UTC 2018-05-13 10:38:34
Writing application : v22.0.0 ('At The End Of The World') 64-bit
Writing library : libebml v1.3.5 + v1.4.8
Cover : Yes
Attachments : cover8.jpg

Video
ID : 1
Format : HEVC
Format/Info : High Efficiency Video Coding
Format profile : Main [email protected]@High
Codec ID : V_MPEGH/ISO/HEVC
Duration : 1 h 37 min
Bit rate : 6 204 kb/s
Width : 1 920 pixels
Height : 814 pixels
Display aspect ratio : 2.35:1
Frame rate mode : Constant
Frame rate : 23.976 (24000/1001) FPS
Color space : YUV
Chroma subsampling : 4:2:0
Bit depth : 10 bits
Bits/(Pixel*Frame) : 0.166
Stream size : 4.22 GiB (89%)
Writing library : x265 2.7+340-aa9102400f24:[Windows][GCC 8.0.1][64 bit] 10bit
Encoding settings : cpuid=1049583 / frame-threads=4 / numa-pools=4 / wpp / no-pmode / no-pme / no-psnr / no-ssim / log-level=2 / input-csp=1 / input-res=1920x814 / interlace=0 / total-frames=140023 / level-idc=0 / high-tier=1 / uhd-bd=0 / ref=5 / no-allow-non-conformance / no-repeat-headers / annexb / no-aud / no-hrd / info / hash=0 / no-temporal-layers / open-gop / min-keyint=24 / keyint=240 / gop-lookahead=0 / bframes=8 / b-adapt=2 / b-pyramid / bframe-bias=0 / rc-lookahead=40 / lookahead-slices=4 / scenecut=40 / radl=0 / no-intra-refresh / ctu=64 / min-cu-size=8 / rect / no-amp / max-tu-size=32 / tu-inter-depth=3 / tu-intra-depth=3 / limit-tu=4 / rdoq-level=1 / dynamic-rd=0.00 / no-ssim-rd / signhide / no-tskip / nr-intra=0 / nr-inter=0 / no-constrained-intra / no-strong-intra-smoothing / max-merge=3 / limit-refs=2 / limit-modes / me=3 / subme=7 / merange=57 / temporal-mvp / weightp / weightb / no-analyze-src-pics / deblock=-3:-3 / no-sao / no-sao-non-deblock / rd=4 / no-early-skip / rskip / no-fast-intra / no-tskip-fast / no-cu-lossless / no-b-intra / no-splitrd-skip / rdpenalty=0 / psy-rd=2.00 / psy-rdoq=1.00 / no-rd-refine / no-lossless / cbqpoffs=0 / crqpoffs=0 / rc=crf / crf=18.0 / qcomp=0.60 / qpstep=4 / stats-write=0 / stats-read=0 / vbv-maxrate=50000 / vbv-bufsize=50000 / vbv-init=0.9 / crf-max=0.0 / crf-min=0.0 / ipratio=1.40 / pbratio=1.30 / aq-mode=1 / aq-strength=1.00 / cutree / zone-count=0 / no-strict-cbr / qg-size=32 / no-rc-grain / qpmax=69 / qpmin=0 / no-const-vbv / sar=1 / overscan=0 / videoformat=5 / range=0 / colorprim=1 / transfer=1 / colormatrix=1 / chromaloc=0 / display-window=0 / max-cll=0,0 / min-luma=0 / max-luma=1023 / log2-max-poc-lsb=8 / vui-timing-info / vui-hrd-info / slices=1 / no-opt-qp-pps / no-opt-ref-list-length-pps / no-multi-pass-opt-rps / scenecut-bias=0.05 / no-opt-cu-delta-qp / no-aq-motion / no-hdr / no-hdr-opt / no-dhdr10-opt / no-idr-recovery-sei / analysis-reuse-level=5 / scale-factor=0 / refine-intra=0 / refine-inter=0 / refine-mv=0 / no-limit-sao / ctu-info=0 / no-lowpass-dct / refine-mv-type=0 / copy-pic=1 / max-ausize-factor=1.0 / no-dynamic-refine / no-single-sei
Language : English
Default : Yes
Forced : No
Color range : Limited
Color primaries : BT.709
Transfer characteristics : BT.709
Matrix coefficients : BT.709

Audio #1
ID : 2
Format : AC-3
Format/Info : Audio Coding 3
Codec ID : A_AC3
Duration : 1 h 37 min
Bit rate mode : Constant
Bit rate : 384 kb/s
Channel(s) : 6 channels
Channel positions : Front: L C R, Side: L R, LFE
Sampling rate : 48.0 kHz
Frame rate : 31.250 FPS (1536 SPF)
Bit depth : 16 bits
Compression mode : Lossy
Stream size : 267 MiB (6%)
Title : Novy Kanal
Language : Ukrainian
Service kind : Complete Main
Default : Yes
Forced : No

Audio #2
ID : 3
Format : AC-3
Format/Info : Audio Coding 3
Codec ID : A_AC3
Duration : 1 h 37 min
Bit rate mode : Constant
Bit rate : 384 kb/s
Channel(s) : 6 channels
Channel positions : Front: L C R, Side: L R, LFE
Sampling rate : 48.0 kHz
Frame rate : 31.250 FPS (1536 SPF)
Bit depth : 16 bits
Compression mode : Lossy
Stream size : 267 MiB (6%)
Language : English
Service kind : Complete Main
Default : No
Forced : No

Text
ID : 4
Format : UTF-8
Codec ID : S_TEXT/UTF8
Codec ID/Info : UTF-8 Plain Text
Duration : 1 h 29 min
Bit rate : 42 b/s
Count of elements : 803
Stream size : 28.2 KiB (0%)
Language : English
Default : No
Forced : No

Menu
00:00:00.000 : en:00:00:00.000
00:02:56.176 : en:00:02:56.176
00:06:37.105 : en:00:06:37.105
00:14:42.048 : en:00:14:42.048
00:20:32.106 : en:00:20:32.106
00:23:56.685 : en:00:23:56.685
00:33:25.712 : en:00:33:25.712
00:43:58.803 : en:00:43:58.803
00:48:52.972 : en:00:48:52.972
00:52:14.757 : en:00:52:14.757
00:57:52.427 : en:00:57:52.427
01:04:04.257 : en:01:04:04.257
01:07:46.187 : en:01:07:46.187
01:17:09.667 : en:01:17:09.667
01:21:04.777 : en:01:21:04.777
01:26:43.615 : en:01:26:43.615
01:30:14.409 : en:01:30:14.409
Скріншоти



Джерело:
Особиста оцінка: 10 - без зайвих вагань рекомендую всім!
Кошмар на вулиці В`язів / A Nightmare on Elm Street (2010) 1080p H.265 Ukr/Eng | Sub Eng
Кошмар на вулиці В`язів / A Nightmare on Elm Street (2010) 1080p H.265 Ukr/Eng | Sub Eng

Жах на вулиці В’язів. Колекція / A Nightmare on Elm Street. Collection (1984-2010) 1080p H.265 Ukr/Eng | Sub Eng

Жанр: жахи, трилер, містерія
Країна: США



Кінокомпанія: New Line Cinema, Platinum Dunes
Режисер: Семюел Байєр (Samuel Bayer)
Актори: Джекі Ерл Хейлі (Jackie Earle Haley), Кайл Ґалнер (Kyle Gallner), Руні Мара (Rooney Mara), Кеті Кессіді (Katie Cassidy), Томас Деккер (Thomas Dekker) та інші.

Сюжет:
Рестарт екранізації культового фільму жахів про Фредді Крюгера, серійного вбивці в капелюсі і з чотирма лезами на своїй рукавичці. Він вбиває дітей в їх снах, і ті, кого вбили уві сні — вмирають в реальності...


Тривалість: 01:31:36
Якість:
Відео:
кодек: H.265 (HEVC)
розмір кадру: 1920 х 800
бітрейт: 5 491 кб/с
бітова глибина: 10 біт
Увага! Перед завантаженням переконайтесь, що ваш пристрій відтворення (та/або ПЗ) підтримують H.265 (HEVC)

Аудіо # 1:
мова: українська
переклад: професійний дубльований
кодек: 5.1
бітрейт: 384 кб/с

Аудіо # 2:
мова: англійська
переклад: оригінал
кодек: 5.1
бітрейт: 448 кб/с

Субтитри:
мова: англійська
тип: програмні (м'які)
формат: *.srt
Info
General
Unique ID : 112095534924294870795717462174324023724 (0x5454D0926D0189B62AFDB97B05A8E1AC)
Complete name : E:\video\A Nightmare on Elm Street. Collection\9. A Nightmare on Elm Street (2010) 1080p H.265 [UKR_ENG].
Format :
Format version : Version 4 / Version 2
File size : 4.22 GiB
Duration : 1 h 35 min
Overall bit rate : 6 324 kb/s
Encoded date : UTC 2018-05-16 13:49:25
Writing application : v22.0.0 ('At The End Of The World') 64-bit
Writing library : libebml v1.3.5 + v1.4.8
Cover : Yes
Attachments : Cover.jpg

Video
ID : 1
Format : HEVC
Format/Info : High Efficiency Video Coding
Format profile : Main [email protected]@High
Codec ID : V_MPEGH/ISO/HEVC
Duration : 1 h 35 min
Bit rate : 5 491 kb/s
Width : 1 920 pixels
Height : 800 pixels
Display aspect ratio : 2.40:1
Frame rate mode : Constant
Frame rate : 23.976 (24000/1001) FPS
Color space : YUV
Chroma subsampling : 4:2:0
Bit depth : 10 bits
Bits/(Pixel*Frame) : 0.149
Stream size : 3.66 GiB (87%)
Writing library : x265 2.7+340-aa9102400f24:[Windows][GCC 8.0.1][64 bit] 10bit
Encoding settings : cpuid=1049583 / frame-threads=4 / numa-pools=4 / wpp / no-pmode / no-pme / no-psnr / no-ssim / log-level=2 / input-csp=1 / input-res=1920x800 / interlace=0 / total-frames=137423 / level-idc=0 / high-tier=1 / uhd-bd=0 / ref=5 / no-allow-non-conformance / no-repeat-headers / annexb / no-aud / no-hrd / info / hash=0 / no-temporal-layers / open-gop / min-keyint=24 / keyint=240 / gop-lookahead=0 / bframes=8 / b-adapt=2 / b-pyramid / bframe-bias=0 / rc-lookahead=40 / lookahead-slices=4 / scenecut=40 / radl=0 / no-intra-refresh / ctu=64 / min-cu-size=8 / rect / no-amp / max-tu-size=32 / tu-inter-depth=3 / tu-intra-depth=3 / limit-tu=4 / rdoq-level=1 / dynamic-rd=0.00 / no-ssim-rd / signhide / no-tskip / nr-intra=0 / nr-inter=0 / no-constrained-intra / no-strong-intra-smoothing / max-merge=3 / limit-refs=2 / limit-modes / me=3 / subme=7 / merange=57 / temporal-mvp / weightp / weightb / no-analyze-src-pics / deblock=-3:-3 / no-sao / no-sao-non-deblock / rd=4 / no-early-skip / rskip / no-fast-intra / no-tskip-fast / no-cu-lossless / no-b-intra / no-splitrd-skip / rdpenalty=0 / psy-rd=2.00 / psy-rdoq=1.00 / no-rd-refine / no-lossless / cbqpoffs=0 / crqpoffs=0 / rc=crf / crf=18.0 / qcomp=0.60 / qpstep=4 / stats-write=0 / stats-read=0 / vbv-maxrate=50000 / vbv-bufsize=50000 / vbv-init=0.9 / crf-max=0.0 / crf-min=0.0 / ipratio=1.40 / pbratio=1.30 / aq-mode=1 / aq-strength=1.00 / cutree / zone-count=0 / no-strict-cbr / qg-size=32 / no-rc-grain / qpmax=69 / qpmin=0 / no-const-vbv / sar=1 / overscan=0 / videoformat=5 / range=0 / colorprim=1 / transfer=1 / colormatrix=1 / chromaloc=0 / display-window=0 / max-cll=0,0 / min-luma=0 / max-luma=1023 / log2-max-poc-lsb=8 / vui-timing-info / vui-hrd-info / slices=1 / no-opt-qp-pps / no-opt-ref-list-length-pps / no-multi-pass-opt-rps / scenecut-bias=0.05 / no-opt-cu-delta-qp / no-aq-motion / no-hdr / no-hdr-opt / no-dhdr10-opt / no-idr-recovery-sei / analysis-reuse-level=5 / scale-factor=0 / refine-intra=0 / refine-inter=0 / refine-mv=0 / no-limit-sao / ctu-info=0 / no-lowpass-dct / refine-mv-type=0 / copy-pic=1 / max-ausize-factor=1.0 / no-dynamic-refine / no-single-sei
Language : English
Default : Yes
Forced : No
Color range : Limited
Color primaries : BT.709
Transfer characteristics : BT.709
Matrix coefficients : BT.709

Audio #1
ID : 2
Format : AC-3
Format/Info : Audio Coding 3
Codec ID : A_AC3
Duration : 1 h 35 min
Bit rate mode : Constant
Bit rate : 384 kb/s
Channel(s) : 6 channels
Channel positions : Front: L C R, Side: L R, LFE
Sampling rate : 48.0 kHz
Frame rate : 31.250 FPS (1536 SPF)
Bit depth : 16 bits
Compression mode : Lossy
Stream size : 262 MiB (6%)
Language : Ukrainian
Service kind : Complete Main
Default : Yes
Forced : No

Audio #2
ID : 3
Format : AC-3
Format/Info : Audio Coding 3
Codec ID : A_AC3
Duration : 1 h 35 min
Bit rate mode : Constant
Bit rate : 448 kb/s
Channel(s) : 6 channels
Channel positions : Front: L C R, Side: L R, LFE
Sampling rate : 48.0 kHz
Frame rate : 31.250 FPS (1536 SPF)
Bit depth : 16 bits
Compression mode : Lossy
Stream size : 306 MiB (7%)
Language : English
Service kind : Complete Main
Default : No
Forced : No

Text #1
ID : 5
Format : UTF-8
Codec ID : S_TEXT/UTF8
Codec ID/Info : UTF-8 Plain Text
Duration : 1 h 29 min
Bit rate : 41 b/s
Count of elements : 944
Stream size : 27.0 KiB (0%)
Language : English
Default : No
Forced : No

Menu
00:00:00.000 : en:Chapter 1
00:09:25.189 : en:Chapter 2
00:20:58.799 : en:Chapter 3
00:30:23.363 : en:Chapter 4
00:40:56.036 : en:Chapter 5
00:53:04.931 : en:Chapter 6
01:01:09.999 : en:Chapter 7
01:10:08.162 : en:Chapter 8
01:20:01.254 : en:Chapter 9
01:29:58.559 : en:Chapter 10
Скріншоти



Джерело:
Особиста оцінка: 6 - третій сорт - не брак



Срібний реліз (на рейтинг впливає 50% завантаженого)
 Трекер:    Зареєстрований   

Завантажити / скачати фільм українською



відео для новачків



 Зареєстрований:   2018-05-16 19:09
 Розмір:   35.24 GB 
 Оцінка фільму:   8.6/10 (Голосів: 8)
   
ukr_anonymous 
Попереджень: 1
Попереджень: 1 


З нами з: 17.04.18
Востаннє: 14.08.18
Повідомлень: 191

2018-05-17 22:24  
Ні у кого доріжок немає до 6-7 частин?(
Anubys 
VIP


З нами з: 09.11.09
Востаннє: 14.08.18
Повідомлень: 360

2018-05-17 22:39  
Яка ж це колекція, колекція це тоді коли все включено.
ukr_anonymous 
Попереджень: 1
Попереджень: 1 


З нами з: 17.04.18
Востаннє: 14.08.18
Повідомлень: 191

2018-05-17 23:12  
Anubys
якщо надасте мені укр доріжки для 6 та 7 частини, буде повна колекція!

-_-В_E_N_D_E_R-_- 
Забанено
Забанено


З нами з: 22.04.18
Востаннє: 24.06.18
Повідомлень: 190

2018-05-17 23:18  
Довго думав кого ця білка мені нагадує

Додано через 52 секунди:

А це виявляється її з Фреді малювали

Anubys 
VIP


З нами з: 09.11.09
Востаннє: 14.08.18
Повідомлень: 360

2018-05-17 23:39  
ukr_anonymous
Сам шукаю, прочитавши це подумав, що хтось знайшов.
Я б рекомендував виправити назву теми, доки не знайдете, а то вводите в оману...по факту це не колекція, але це тільки рекомендація, вирішувати Вам чи модераторам.
Між іншим є Remux усіх частин, що тут описані, пишіть в приват на рахунок викладення.

ukr_anonymous 
Попереджень: 1
Попереджень: 1 


З нами з: 17.04.18
Востаннє: 14.08.18
Повідомлень: 191

2018-05-17 23:49  
Anubys написано:
Між іншим є Remux усіх частин, що тут описані, пишіть в приват на рахунок викладення.

Немає стільки пам'яті, щоб робити таку колекцію)
Anubys написано:
Я б рекомендував виправити назву теми, доки не знайдете, а то вводите в оману...по факту це не колекція, але це тільки рекомендація, вирішувати Вам чи модераторам

Нехай модератори вирішать)

Nikko033 
VIP


З нами з: 31.12.12
Востаннє: 14.08.18
Повідомлень: 470

2018-05-30 16:29  
обожнюю! фільми дитинства, які не одноразово переглядав і ще перегляну. люблю всі фільми, окрім паскудного ремейку. навіть Фреді проти Джейсона. за всі фільми і неймовірно харизматичного любителя дітей містера Крюгера 10/10
Ваш часовий пояс: GMT + 2 Години

Нова тема   Відповісти