Матриця часу / Before I Fall (2017) 1080p H.265 Ukr/Eng | Sub Eng — HD українською

Матриця часу / Before I Fall (2017) 1080p H.265 Ukr/Eng | Sub Eng

Нові коментарі

Нова тема   Відповісти
Автор Повідомлення
ukr_anonymous 
Попереджень: 1
Попереджень: 1 


З нами з: 17.04.18
Востаннє: 14.08.18
Повідомлень: 191

2018-05-16 17:05  
Матриця часу / Before I Fall (2017) 1080p H.265 Ukr/Eng | Sub Eng

Матриця часу / Before I Fall (2017) 1080p H.265 Ukr/Eng | Sub Eng

Жанр: детектив, драма
Країна: США



Кінокомпанія: Open Road Films, Awesomeness Films
Режисер: Рі Руссо-Янг
Актори: Зої Дойч, Хелстон Сейдж, Логан Міллер, Кіан Лоулі, Лів Г'юсон, Олена Кампуріс, Синті Ву, Еріка Тремблей, Дієго Бонета, Дженніфер Білз та інші

Сюжет:
Ви ніколи не замислювалися як би провели день, знаючи, що він останній у вашому житті? Подібні думки ніколи не відвідували старшокласницю Сем. Дівчину цілком влаштовує її життя. Вона і її подруги – найпопулярніші дівчата в школі. Прокинувшись вранці 12 лютого, Сем була впевнена, що попереду на неї чекає захоплюючий день. І він був таким. Але повертаючись додому з вечірки подруги потрапляють в аварію, в якій напевно всі повинні загинути. Але Сем прокидається в своєму ліжку. І на календарі знову 12 лютого. День міг би стати таким само безтурботним і легким, як і всі попередні. Але тепер дівчина знає, що ввечері загине.


Тривалість: 01:38:47
Якість:
Відео:
кодек: H.265 (HEVC)
розмір кадру: 1920 х 800
бітрейт: 3 202 кб/с
бітова глибина: 10 біт
Увага! Перед завантаженням переконайтесь, що ваш пристрій відтворення (та/або ПЗ) підтримують H.265 (HEVC)

Аудіо # 1:
мова: українська
переклад: багатоголосий закадровий
кодек: 2.0
бітрейт: 192 кб/с

Аудіо # 2:
мова: англійська
переклад: оригінал
кодек: 5.1
бітрейт: 448 кб/с

Субтитри # 1-2:
мова: англійська (Full, SDH)
тип: програмні (м'які)
формат: *.srt
Info
General
Unique ID : 313211779845829781213106587760964284636 (0xEBA26502CD1186C39A42374E570230DC)
Complete name : D:\Video\Before I Fall (2017) 1080p H.265 [UKR_ENG].
Format :
Format version : Version 4 / Version 2
File size : 2.65 GiB
Duration : 1 h 38 min
Overall bit rate : 3 844 kb/s
Encoded date : UTC 2018-05-05 18:40:19
Writing application : v22.0.0 ('At The End Of The World') 64-bit
Writing library : libebml v1.3.5 + v1.4.8
Cover : Yes
Attachments : cover

Video
ID : 1
Format : HEVC
Format/Info : High Efficiency Video Coding
Format profile : Main [email protected]@High
Codec ID : V_MPEGH/ISO/HEVC
Duration : 1 h 38 min
Bit rate : 3 202 kb/s
Width : 1 920 pixels
Height : 800 pixels
Display aspect ratio : 2.40:1
Frame rate mode : Constant
Frame rate : 23.976 (24000/1001) FPS
Color space : YUV
Chroma subsampling : 4:2:0
Bit depth : 10 bits
Bits/(Pixel*Frame) : 0.087
Stream size : 2.21 GiB (83%)
Writing library : x265 2.5+20-0967d0add97e:[Windows][GCC 7.2.0][64 bit] 10bit
Encoding settings : cpuid=1173503 / frame-threads=4 / numa-pools=16 / wpp / no-pmode / no-pme / no-psnr / no-ssim / log-level=2 / input-csp=1 / input-res=1920x800 / interlace=0 / total-frames=0 / level-idc=51 / high-tier=1 / uhd-bd=0 / ref=4 / no-allow-non-conformance / no-repeat-headers / annexb / no-aud / no-hrd / info / hash=0 / no-temporal-layers / open-gop / min-keyint=23 / keyint=240 / bframes=6 / b-adapt=2 / b-pyramid / bframe-bias=0 / rc-lookahead=25 / lookahead-slices=4 / scenecut=40 / no-intra-refresh / ctu=64 / min-cu-size=8 / rect / amp / max-tu-size=32 / tu-inter-depth=3 / tu-intra-depth=3 / limit-tu=0 / rdoq-level=1 / dynamic-rd=0.00 / no-ssim-rd / signhide / no-tskip / nr-intra=0 / nr-inter=0 / no-constrained-intra / no-strong-intra-smoothing / max-merge=3 / limit-refs=3 / limit-modes / me=2 / subme=7 / merange=57 / temporal-mvp / weightp / no-weightb / no-analyze-src-pics / deblock=-3:-3 / no-sao / no-sao-non-deblock / rd=4 / no-early-skip / rskip / no-fast-intra / no-tskip-fast / no-cu-lossless / no-b-intra / no-splitrd-skip / rdpenalty=0 / psy-rd=1.50 / psy-rdoq=1.20 / no-rd-refine / analysis-reuse-mode=0 / no-lossless / cbqpoffs=0 / crqpoffs=0 / rc=crf / crf=18.0 / qcomp=0.60 / qpstep=4 / stats-write=0 / stats-read=0 / vbv-maxrate=160000 / vbv-bufsize=160000 / vbv-init=0.9 / crf-max=0.0 / crf-min=0.0 / ipratio=1.40 / pbratio=1.30 / aq-mode=1 / aq-strength=0.50 / cutree / zone-count=1 / zones: / start-frame=134141 / end-frame=142129 / qp=35 / no-strict-cbr / qg-size=32 / no-rc-grain / qpmax=51 / qpmin=0 / no-const-vbv / sar=0 / overscan=0 / videoformat=5 / range=0 / colorprim=2 / transfer=2 / colormatrix=1 / chromaloc=0 / display-window=0 / max-cll=0,0 / min-luma=0 / max-luma=1023 / log2-max-poc-lsb=8 / vui-timing-info / vui-hrd-info / slices=1 / opt-qp-pps / opt-ref-list-length-pps / no-multi-pass-opt-rps / scenecut-bias=0.05 / no-opt-cu-delta-qp / no-aq-motion / no-hdr / no-hdr-opt / no-dhdr10-opt / analysis-reuse-level=5 / scale-factor=0 / refine-intra=0 / refine-inter=0 / refine-mv=0 / no-limit-sao / ctu-info=0
Default : Yes
Forced : Yes
Color range : Limited
Matrix coefficients : BT.709

Audio #1
ID : 2
Format : AC-3
Format/Info : Audio Coding 3
Codec ID : A_AC3
Duration : 1 h 38 min
Bit rate mode : Constant
Bit rate : 192 kb/s
Channel(s) : 2 channels
Channel positions : Front: L R
Sampling rate : 48.0 kHz
Frame rate : 31.250 FPS (1536 SPF)
Bit depth : 16 bits
Compression mode : Lossy
Stream size : 136 MiB (5%)
Title : 2.0 @ 192 kbps
Language : Ukrainian
Service kind : Complete Main
Default : Yes
Forced : Yes

Audio #2
ID : 3
Format : AC-3
Format/Info : Audio Coding 3
Codec ID : A_AC3
Duration : 1 h 38 min
Bit rate mode : Constant
Bit rate : 448 kb/s
Channel(s) : 6 channels
Channel positions : Front: L C R, Side: L R, LFE
Sampling rate : 48.0 kHz
Frame rate : 31.250 FPS (1536 SPF)
Bit depth : 16 bits
Compression mode : Lossy
Stream size : 317 MiB (12%)
Title : 5.1 @ 448 kbps
Language : English
Service kind : Complete Main
Default : No
Forced : No

Text #1
ID : 4
Format : UTF-8
Codec ID : S_TEXT/UTF8
Codec ID/Info : UTF-8 Plain Text
Duration : 1 h 32 min
Bit rate : 53 b/s
Count of elements : 1228
Stream size : 36.2 KiB (0%)
Title : Full
Language : English
Default : No
Forced : No

Text #2
ID : 5
Format : UTF-8
Codec ID : S_TEXT/UTF8
Codec ID/Info : UTF-8 Plain Text
Duration : 1 h 32 min
Bit rate : 60 b/s
Count of elements : 1396
Stream size : 40.8 KiB (0%)
Title : SDH
Language : English
Default : No
Forced : No

Menu
00:00:00.000 : en:00:00:00.000
00:05:23.448 : en:00:05:23.448
00:10:13.321 : en:00:10:13.321
00:14:14.520 : en:00:14:14.520
00:22:23.676 : en:00:22:23.676
00:27:21.932 : en:00:27:21.932
00:33:41.353 : en:00:33:41.353
00:37:41.384 : en:00:37:41.384
00:41:21.145 : en:00:41:21.145
00:46:37.795 : en:00:46:37.795
00:51:22.871 : en:00:51:22.871
00:56:48.238 : en:00:56:48.238
00:59:33.820 : en:00:59:33.820
01:04:07.635 : en:01:04:07.635
01:08:31.566 : en:01:08:31.566
01:13:09.927 : en:01:13:09.927
01:17:50.291 : en:01:17:50.291
01:21:09.531 : en:01:21:09.531
01:25:44.181 : en:01:25:44.181
01:33:19.594 : en:01:33:19.594
Скріншоти



Джерело:
Особиста оцінка: 9 - давно не бачив настільки якісне кіно


 Трекер:    Зареєстрований   

Завантажити / скачати фільм українською



відео для новачків



 Зареєстрований:   2018-05-16 17:05
 Розмір:   2.65 GB 
 Оцінка фільму:   7.4/10 (Голосів: 7)
   
Інші релізи
   Матриця часу / Before I Fall (2017) 1080p Ukr/Eng | Sub Eng staf777  10 / 0   7.96 GB   2018-01-26 10:51 
   Матриця часу / Before I Fall (2017) Remux 1080p Ukr/Eng | Sub Eng/Spa IronBee  4 / 0   24.42 GB   2017-12-02 14:18 
   Матриця часу / Before I Fall (2017) Ukr/Eng | Sub Eng sokeel  14 / 0   1.84 GB   2017-11-22 13:02 
   Матриця часу / Before I Fall (2017) igor911  50 / 8   1.37 GB   2017-10-13 08:31 
   Матриця часу / Before I Fall (2017) 720p Ukr/Eng | Sub Eng 11FrYkT  45 / 0   4.14 GB   2017-10-12 20:06 
   Матриця часу / Before I Fall (2017) AVC Ukr/Eng | Sub Eng Electroz  85 / 0   1.3 GB   2017-10-11 20:31 
Skiff_1956 
Свій


З нами з: 14.09.14
Востаннє: 14.08.18
Повідомлень: 62

2018-05-16 18:19  
Там точно
ukr_anonymous написано:
переклад: професійний дубльований
???
ukr_anonymous 
Попереджень: 1
Попереджень: 1 


З нами з: 17.04.18
Востаннє: 14.08.18
Повідомлень: 191

2018-05-16 18:44  
Skiff_1956
Ні, виправив. Хоча, при перегляді, оригінальної доріжки майже не чути!

Ваш часовий пояс: GMT + 2 Години

Нова тема   Відповісти