P.S. Я кохаю тебе / P.S. I love You (2007) 1080p 2xUkr/Eng | Sub Eng

Нові коментарі

Нова тема   Відповісти
немає
Автор Повідомлення
boroznaya 
VIP


З нами з: 02.11.12
Востаннє: 25.05.18
Повідомлень: 2816

2018-05-16 16:43  
P.S. Я кохаю тебе / P.S. I love You (2007) 1080p 2xUkr/Eng | Sub Eng

P.S. Я кохаю тебе / P.S. I love You (2007) 1080p 2xUkr/Eng | Sub Eng


Жанр: драма, романтичний
Країна: США



Кінокомпанія: Alcon Entertainment, Grosvenor Park Productions, Wendy Finerman Productions
Режисер: Річард ЛаГравенес
Актори: Хіларі Свонк, Джерард Батлер, Ліза Кудроу, Джина Гершон, Джеймс Марстерс, Кеті Бейтс, Гаррі Коннік мол. та інші.

Сюжет:
Все життя Холлі будувалося на любові до чоловіка. Його не стало, життя зруйнувалося. Тепер щомісяця невідомо звідки, Холлі одержує листи, у яких їй даються якісь конкретні поради. Дотримуючись порад, молода жінка крок за кроком, як по сходах, піднімається з депресії.


Тривалість: 02:06:02
Якість: 1080p
Відео:
кодек:
розмір кадру: 1920х1080
бітрейт: 12 Мб/с

Аудіо # 1:
мова: українська
переклад: професійний дубльований
кодек: 5.1
бітрейт: 384 кб/с

Аудіо # 2:
мова: українська
переклад: багатоголосий закадровий
кодек: 2.0
бітрейт: 192 кб/с

Аудіо # 3:
мова: англійська
переклад: оригінал
кодек: 5.1
бітрейт: 1510 кб/с

Субтитри:
мова: англійська
тип: програмні (м'які)
формат: *.srt
Info
D:\Фільми\Готові релізи\P.S. I Love You (2007) [2xUkr, Eng, sub. Eng] 1080p [Hurtom].
General
Unique ID : 104573395226202844645390662425824762726 (0x4EAC1A7385D8543EEEAC89FF5ED49B66)
Complete name : D:\Фільми\Готові релізи\P.S. I Love You (2007) [2xUkr, Eng, sub. Eng] 1080p [Hurtom].
Format :
Format version : Version 4 / Version 2
File size : 12.4 GiB
Duration : 2h 6mn
Overall bit rate : 14.1 Mbps
Encoded date : UTC 2018-05-16 13:01:09
Writing application : v20.0.0 ('I Am The Sun') 64-bit
Writing library : libebml v1.3.5 + v1.4.8
DURATION : 02:06:02.880000000
NUMBER_OF_FRAMES : 236340
NUMBER_OF_BYTES : 181509120
_STATISTICS_WRITING_APP : v20.0.0 ('I Am The Sun') 64-bit
_STATISTICS_WRITING_DATE_UTC : 2018-05-16 13:01:09
_STATISTICS_TAGS : BPS DURATION NUMBER_OF_FRAMES NUMBER_OF_BYTES

Video #1
ID : 1
Format : AVC
Format/Info : Advanced Video Codec
Format profile : [email protected]
Format settings, CABAC : Yes
Format settings, ReFrames : 4 frames
Codec ID : V_MPEG4/ISO/AVC
Duration : 2h 6mn
Bit rate : 12.0 Mbps
Width : 1 920 pixels
Height : 1 080 pixels
Display aspect ratio : 16:9
Frame rate : 23.976 fps
Color space : YUV
Chroma subsampling : 4:2:0
Bit depth : 8 bits
Scan type : Progressive
Bits/(Pixel*Frame) : 0.241
Stream size : 10.3 GiB (83%)
Writing library : core 148 r2638 7599210
Encoding settings : cabac=1 / ref=4 / deblock=1:-3:-3 / analyse=0x3:0x133 / me=umh / subme=11 / psy=1 / psy_rd=1.05:0.15 / mixed_ref=1 / me_range=48 / chroma_me=1 / trellis=2 / 8x8dct=1 / cqm=0 / deadzone=21,11 / fast_pskip=1 / chroma_qp_offset=-5 / threads=12 / lookahead_threads=3 / sliced_threads=0 / nr=0 / decimate=1 / interlaced=0 / bluray_compat=0 / constrained_intra=0 / bframes=10 / b_pyramid=2 / b_adapt=2 / b_bias=0 / direct=2 / weightb=1 / open_gop=0 / weightp=1 / keyint=240 / keyint_min=1 / scenecut=40 / intra_refresh=0 / rc_lookahead=140 / rc=2pass / mbtree=1 / bitrate=12000 / ratetol=1.0 / qcomp=0.65 / qpmin=0 / qpmax=69 / qpstep=4 / cplxblur=20.0 / qblur=0.5 / vbv_maxrate=62500 / vbv_bufsize=78125 / nal_hrd=none / filler=0 / ip_ratio=1.40 / aq=2:1.00
Language : English
Default : Yes
Forced : Yes

Audio #2
ID : 2
Format : AC-3
Format/Info : Audio Coding 3
Mode extension : CM (complete main)
Codec ID : A_AC3
Duration : 2h 6mn
Bit rate mode : Constant
Bit rate : 384 Kbps
Channel(s) : 6 channels
Channel positions : Front: L C R, Side: L R, LFE
Sampling rate : 48.0 KHz
Bit depth : 16 bits
Compression mode : Lossy
Stream size : 346 MiB (3%)
Title : Дубляж (BluRay)
Language : Ukrainian
Default : Yes
Forced : No

Audio #3
ID : 3
Format : AC-3
Format/Info : Audio Coding 3
Mode extension : CM (complete main)
Codec ID : A_AC3
Duration : 2h 6mn
Bit rate mode : Constant
Bit rate : 192 Kbps
Channel(s) : 2 channels
Channel positions : Front: L R
Sampling rate : 48.0 KHz
Bit depth : 16 bits
Compression mode : Lossy
Stream size : 173 MiB (1%)
Title : Багатоголосий закадровий, 1+1
Language : Ukrainian
Default : No
Forced : No

Audio #4
ID : 4
Format :
Format/Info : Digital Theater Systems
Codec ID : A_DTS
Duration : 2h 6mn
Bit rate mode : Constant
Bit rate : 1 510 Kbps
Channel(s) : 6 channels
Channel positions : Front: L C R, Side: L R, LFE
Sampling rate : 48.0 KHz
Bit depth : 16 bits
Compression mode : Lossy
Stream size : 1.33 GiB (11%)
Language : English
Default : No
Forced : No

Text #5
ID : 5
Format : UTF-8
Codec ID : S_TEXT/UTF8
Codec ID/Info : UTF-8 Plain Text
Language : English
Default : No
Forced : No
Скріншоти







Подяка:
- доріжка [Skiff]
- постер [Soyer]

Джерело: &
Особиста оцінка: 8 - мені сподобалося
bot 
робот


З нами з: 30.09.07
Востаннє: 26.05.05
Повідомлень: 18933

2018-05-16 16:45  
Тему перенесено з Фільми в HD до форуму Анонси релізів


boroznaya
bodia87 
Відео Гуртом - фільмокрай
Відео Гуртом - фільмокрай


З нами з: 24.01.09
Востаннє: 25.05.18
Повідомлень: 516

2018-05-17 11:39  
Маю ще запис з Нового Каналу.
boroznaya 
VIP


З нами з: 02.11.12
Востаннє: 25.05.18
Повідомлень: 2816

2018-05-17 16:13  
bodia87, чудово! Можна було б долучити до релізу!
Murzik 
Новенький


З нами з: 30.12.10
Востаннє: 25.05.18
Повідомлень: 24

2018-05-19 11:22  
На постері здається помилочка: "Іноді залишається сказати лише одне".
Я майже впевнений, що "залишається" пишеться разом.
boroznaya 
VIP


З нами з: 02.11.12
Востаннє: 25.05.18
Повідомлень: 2816

2018-05-19 16:57  
Murzik, чудово Вас розумію, але постер не мій, тому, виправляти не маю права ...
Ваш часовий пояс: GMT + 2 Години

Нова тема   Відповісти