Я знаю, що ви скоїли минулого літа / I Know What You Did Last Summer (1997) 1080p Ukr/Eng | sub 2xEng

Нові коментарі

Нова тема   Відповісти
Останній раз роздавалося ZetterWALL (2018-07-13)
Автор Повідомлення
boroznaya 
Попереджень: 1
Попереджень: 1 


З нами з: 02.11.12
Востаннє: 29.09.20
Повідомлень: 2938

2018-05-16 14:47  
Я знаю, що ви скоїли минулого літа / I Know What You Did Last Summer (1997) 1080p Ukr/Eng | sub 2xEng

Я знаю, що ви скоїли минулого літа / I Know What You Did Last Summer (1997) 1080p Ukr/Eng | sub 2xEng


Якщо ви збираєтеся поховати правду, переконайтеся, що вона залишається похованою!


Жанр: жахи, містика, трилер
Країна: США



Кінокомпанія: Columbia Pictures Corporation, Mandalay Entertainment, Summer Knowledge LLC
Режисер: Джим Ґіллеспі
Актори: Дженніфер Лав Г'юїтт, Сара Мішель Ґеллар, Раян Філіпп, Фредді Принц мол., Бріджит Вілсон, Енн Геч, Джонні Галецкі, М'юз Ватсон, Стюарт Ґрір, Дж. Дон Ферґюсон, Дебора Гобарт, Мері МакМіллан, Ден Олбрайт, Лінда Кларк, Дженніфер Бленд, Вільям Нілі, Річард Дейл Міллер та інші.

Сюжет:
Двоє хлопців зі своїми дівчатами поїхали після завершення школи на пляж розважитися. Повертаючись додому, вони збили людину і, щоб уникнути неприємностей з поліцією, скинули тіло у воду ... Через рік одна з героїнь одержує записку: "Я знаю, що ви скоїли минулого літа" ...


Тривалість: 01:40:53
Якість: 1080p
Відео:
кодек:
розмір кадру: 1920x800
бітрейт: 13.9 Мб/с

Аудіо # 1:
мова: українська
переклад: багатоголосий закадровий
кодек: 5.1
бітрейт: 448 кб/с

Аудіо # 2:
мова: англійська
переклад: оригінал
кодек: 5.1
бітрейт: 1510 кб/с

Субтитри:
мова: англійська
тип: програмні (м'які)
формат: *.srt

Субтитри: [SDH]
мова: англійська
тип: програмні (м'які)
формат: *.srt
Info
D:\Фільми\Готові релізи\I Know What You Did Last Summer (1997) [Ukr, Eng, sub. 2xEng] 1080p [Hurtom].
General
Unique ID : 281791406168002488929267344821443612326 (0xD3FF0CFC0D1351DBE9F507A0AF93CEA6)
Complete name : D:\Фільми\Готові релізи\I Know What You Did Last Summer (1997) [Ukr, Eng, sub. 2xEng] 1080p [Hurtom].
Format :
Format version : Version 4 / Version 2
File size : 11.4 GiB
Duration : 1h 40mn
Overall bit rate : 16.1 Mbps
Encoded date : UTC 2018-05-15 17:08:33
Writing application : v20.0.0 ('I Am The Sun') 64-bit
Writing library : libebml v1.3.5 + v1.4.8
DURATION : 01:40:53.056000000
NUMBER_OF_FRAMES : 189158
NUMBER_OF_BYTES : 338971136
_STATISTICS_WRITING_APP : v20.0.0 ('I Am The Sun') 64-bit
_STATISTICS_WRITING_DATE_UTC : 2018-05-15 17:08:33
_STATISTICS_TAGS : BPS DURATION NUMBER_OF_FRAMES NUMBER_OF_BYTES

Video #1
ID : 1
Format : AVC
Format/Info : Advanced Video Codec
Format profile : [email protected]
Format settings, CABAC : Yes
Format settings, ReFrames : 5 frames
Codec ID : V_MPEG4/ISO/AVC
Duration : 1h 40mn
Bit rate : 13.9 Mbps
Width : 1 920 pixels
Height : 800 pixels
Display aspect ratio : 2.40:1
Frame rate : 23.976 fps
Color space : YUV
Chroma subsampling : 4:2:0
Bit depth : 8 bits
Scan type : Progressive
Bits/(Pixel*Frame) : 0.376
Stream size : 9.76 GiB (86%)
Writing library : core 148 r2692kMod 64f4e24
Encoding settings : cabac=1 / ref=5 / deblock=1:-3:-3 / analyse=0x3:0x133 / me=umh / subme=10 / psy=1 / fade_compensate=0.00 / psy_rd=0.95:0.00 / mixed_ref=1 / me_range=32 / chroma_me=1 / trellis=2 / 8x8dct=1 / cqm=0 / deadzone=21,11 / fast_pskip=0 / chroma_qp_offset=-2 / threads=6 / lookahead_threads=1 / sliced_threads=0 / nr=0 / decimate=0 / interlaced=0 / bluray_compat=0 / constrained_intra=0 / fgo=0 / bframes=8 / b_pyramid=2 / b_adapt=2 / b_bias=0 / direct=3 / weightb=1 / open_gop=0 / weightp=2 / keyint=250 / keyint_min=23 / scenecut=40 / intra_refresh=0 / rc=crf / mbtree=0 / crf=18.0000 / qcomp=0.60 / qpmin=0 / qpmax=69 / qpstep=4 / ip_ratio=1.30 / pb_ratio=1.20 / aq=3:0.90
Language : English
Default : Yes
Forced : No
DURATION : 01:40:53.047000000
NUMBER_OF_FRAMES : 145128
NUMBER_OF_BYTES : 10724189410
_STATISTICS_WRITING_APP : v20.0.0 ('I Am The Sun') 64-bit
_STATISTICS_WRITING_DATE_UTC : 2018-05-15 17:08:33
_STATISTICS_TAGS : BPS DURATION NUMBER_OF_FRAMES NUMBER_OF_BYTES

Audio #2
ID : 2
Format : AC-3
Format/Info : Audio Coding 3
Mode extension : CM (complete main)
Codec ID : A_AC3
Duration : 1h 40mn
Bit rate mode : Constant
Bit rate : 448 Kbps
Channel(s) : 6 channels
Channel positions : Front: L C R, Side: L R, LFE
Sampling rate : 48.0 KHz
Bit depth : 16 bits
Compression mode : Lossy
Stream size : 323 MiB (3%)
Title : Багатоголосий закадровий, ТРК "Україна"
Language : Ukrainian
Default : Yes
Forced : No

Audio #3
ID : 3
Format :
Format/Info : Digital Theater Systems
Codec ID : A_DTS
Duration : 1h 40mn
Bit rate mode : Constant
Bit rate : 1 510 Kbps
Channel(s) : 6 channels
Channel positions : Front: L C R, Side: L R, LFE
Sampling rate : 48.0 KHz
Bit depth : 24 bits
Compression mode : Lossy
Stream size : 1.06 GiB (9%)
Language : English
Default : No
Forced : No

Text #4
ID : 4
Format : UTF-8
Codec ID : S_TEXT/UTF8
Codec ID/Info : UTF-8 Plain Text
Language : English
Default : No
Forced : No

Text #5
ID : 5
Format : UTF-8
Codec ID : S_TEXT/UTF8
Codec ID/Info : UTF-8 Plain Text
Title : SDH
Language : English
Default : No
Forced : No
Скріншоти







Подяка:
- за постер пану ERMOLENKO;
- за наданий сирий звук пані olgaya;
- зведення та синхронізацію пану JACKUS.

Джерело: &
Особиста оцінка: 8 - мені сподобалося

Не забуваємо Дякувати!


Срібний реліз (на рейтинг впливає 50% завантаженого)
 Трекер:    Зареєстрований   

Завантажити / скачати фільм українською



відео для новачків



 Зареєстрований:   2018-05-27 15:04
 Розмір:   11.37 GB 
 Оцінка фільму:   8.7/10 (Голосів: 7)
   
boroznaya 
Попереджень: 1
Попереджень: 1 


З нами з: 02.11.12
Востаннє: 29.09.20
Повідомлень: 2938

2018-05-27 15:19  
Фільм "Я знаю, що ви скоїли минулого літа" на роздачі!
Приємного перегляду, Гуртомівці!

Ваш часовий пояс: GMT + 2 Години

Нова тема   Відповісти