Фірма / The Firm (1993) AVC 2xUkr/Eng | Sub Eng

Нові коментарі

Нова тема   Відповісти
Автор Повідомлення
Anonymous 







2018-05-15 20:33  
Фірма / The Firm (1993) AVC 2xUkr/Eng | Sub Eng

Фірма / The Firm (1993) AVC 2xUkr/Eng | Sub Eng


Жанр: драма, трилер
Країна: США



Кінокомпанія: Paramount Pictures
Режисер: Сідні Полак / Sydney Pollack
Актори: Том Круз / Tom Cruise, Джері Гардін / Jerry Hardin, Джінн Тріпплхорн / Jeanne Tripplehorn, Девід Стретейрн / David Strathairn, Вілфорд Брімлі / Wilford Brimley, Голлі Гантер / Holly Hunter, Гел Голбрук / Hal Holbrook, Джин Гекмен / Gene Hackman, Ед Гарріс / Ed Harris та Гері Б'юзі / Gary Busey

Сюжет:
Молодий і амбіційний випускник Гарварду (Круз), одружений на багатій красуні, починає працювати в юридичній фірмі, де йому запропонували ну дуже хороші умови. Розплата за це була дуже дорогою. Виявилось, що фірма обслуговувала найвпливовіші мафіозні клани Чикаго і всі співробітники ставали заручниками, що не контролюють більше своє власне життя. Тих, хто намагався піти, вбивали. Випускник потрапляє між двох вогнів - з одного боку на нього давить ФБР, з іншого його чекає вірна смерть від рук вбивць.


Тривалість: 02:34:34
Якість:
Відео:
кодек:
розмір кадру: 1024 х 576
бітрейт: 1 418 кб/с

Аудіо # 1:
мова: українська
переклад: багатоголосий закадровий
кодек: 2.0
бітрейт: 192 кб/с

Аудіо # 2: Вставлено два фрагменти з першої доріжки у зв'язку з неповним записом трансляції і фрагментом, вирізаним телеканалом.
мова: українська
переклад: багатоголосий закадровий
кодек: 2.0
бітрейт: 192 кб/с

Аудіо # 3:
мова: англійська
переклад: оригінал
кодек: 2.0
бітрейт: 192 кб/с

Субтитри:
мова: англійська
тип: програмні (м'які)
формат: *.srt
Info
General
Unique ID : 49731826769789099967571592303059266851 (0x256A005E247F3514BD4DE514D3CDED23)
Complete name : E:\films\The Firm (1993) AVC [2xUkr.Eng] Hurtom.
Format :
Format version : Version 4 / Version 2
File size : 2.16 GiB
Duration : 2 h 34 min
Overall bit rate : 1 997 kb/s
Movie name : The Firm (1993) AVC [2xUkr.Eng] Hurtom.
Encoded date : UTC 2018-05-15 17:07:45
Writing application : v21.0.0 ('Tardigrades Will Inherit The Earth') 64-bit
Writing library : libebml v1.3.5 + v1.4.8

Video
ID : 1
Format : AVC
Format/Info : Advanced Video Codec
Format profile : [email protected]
Format settings, CABAC : Yes
Format settings, ReFrames : 3 frames
Codec ID : V_MPEG4/ISO/AVC
Duration : 2 h 34 min
Bit rate : 1 418 kb/s
Width : 1 024 pixels
Height : 576 pixels
Display aspect ratio : 16:9
Frame rate mode : Constant
Frame rate : 23.976 (24000/1001) FPS
Color space : YUV
Chroma subsampling : 4:2:0
Bit depth : 8 bits
Scan type : Progressive
Bits/(Pixel*Frame) : 0.100
Stream size : 1.53 GiB (71%)
Title : The Firm (1993) AVC [2xUkr.Eng] Hurtom.
Writing library : core 155 r2901 7d0ff22
Encoding settings : cabac=1 / ref=3 / deblock=1:0:0 / analyse=0x1:0x111 / me=hex / subme=8 / psy=1 / psy_rd=1.00:0.00 / mixed_ref=1 / me_range=16 / chroma_me=1 / trellis=2 / 8x8dct=0 / cqm=0 / deadzone=21,11 / fast_pskip=1 / chroma_qp_offset=-2 / threads=12 / lookahead_threads=2 / sliced_threads=0 / nr=0 / decimate=1 / interlaced=0 / bluray_compat=0 / constrained_intra=0 / bframes=3 / b_pyramid=0 / b_adapt=2 / b_bias=0 / direct=1 / weightb=1 / open_gop=0 / weightp=2 / keyint=240 / keyint_min=23 / scenecut=40 / intra_refresh=0 / rc_lookahead=40 / rc=crf / mbtree=1 / crf=21.0 / qcomp=0.60 / qpmin=0 / qpmax=69 / qpstep=4 / vbv_maxrate=14000 / vbv_bufsize=14000 / crf_max=0.0 / nal_hrd=none / filler=0 / ip_ratio=1.40 / aq=1:1.00
Language : Multiple languages
Default : Yes
Forced : No

Audio #1
ID : 2
Format : AC-3
Format/Info : Audio Coding 3
Mode extension : CM (complete main)
Format settings, Endianness : Big
Codec ID : A_AC3
Duration : 2 h 34 min
Bit rate mode : Constant
Bit rate : 192 kb/s
Channel(s) : 2 channels
Channel positions : Front: L R
Sampling rate : 48.0 kHz
Frame rate : 31.250 FPS (1536 spf)
Bit depth : 16 bits
Compression mode : Lossy
Stream size : 212 MiB (10%)
Title : Novy channel
Language : Ukrainian
Default : Yes
Forced : Yes

Audio #2
ID : 3
Format : AC-3
Format/Info : Audio Coding 3
Mode extension : CM (complete main)
Format settings, Endianness : Big
Codec ID : A_AC3
Duration : 2 h 34 min
Bit rate mode : Constant
Bit rate : 192 kb/s
Channel(s) : 2 channels
Channel positions : Front: L R
Sampling rate : 48.0 kHz
Frame rate : 31.250 FPS (1536 spf)
Bit depth : 16 bits
Compression mode : Lossy
Stream size : 212 MiB (10%)
Title : INTER channel
Language : Ukrainian
Default : No
Forced : No

Audio #3
ID : 4
Format : AC-3
Format/Info : Audio Coding 3
Mode extension : CM (complete main)
Format settings, Endianness : Big
Codec ID : A_AC3
Duration : 2 h 34 min
Bit rate mode : Constant
Bit rate : 192 kb/s
Channel(s) : 2 channels
Channel positions : Front: L R
Sampling rate : 48.0 kHz
Frame rate : 31.250 FPS (1536 spf)
Bit depth : 16 bits
Compression mode : Lossy
Stream size : 212 MiB (10%)
Title : Original
Language : English
Default : No
Forced : No

Text
ID : 5
Format : UTF-8
Codec ID : S_TEXT/UTF8
Codec ID/Info : UTF-8 Plain Text
Duration : 2 h 30 min
Bit rate : 59 b/s
Count of elements : 1787
Stream size : 65.4 KiB (0%)
Language : English
Default : Yes
Forced : No
Скріншоти






Подяки: MAKAPOHHIK за доріжку від Нового Каналу і Gelios за постер

Джерело:


Срібний реліз (на рейтинг впливає 50% завантаженого)
 Трекер:    Зареєстрований   

Завантажити / скачати фільм українською



відео для новачків



 Зареєстрований:   2018-05-15 20:33
 Розмір:   2.16 GB 
 Оцінка фільму:   9.3/10 (Голосів: 23)
   
Інші релізи
   Фірма / The Firm (1993) 1080p H.265 2xUkr/Eng | Sub Eng -Star-Lord-  2 / 0   9.62 GB   2018-08-25 00:33 
   Фірма / The Firm (1993) Ukr/Eng | Sub Eng aalleexx85  1 / 0   3.05 GB   2011-10-25 14:52 
   Фірма / The Firm (1993) 720p Ukr/Eng | Sub Eng Dim-ON  1 / 1   7.99 GB   2011-06-21 21:13 
RamonPerez 
Новенький


З нами з: 07.06.17
Востаннє: 17.04.19
Повідомлень: 9

2018-05-15 21:12  
Гарне кіно. Серед виконавців варто вказати таких зірок як Джин Гекмен, Ед Гарріс та Гері Б'юзі.
роман xa 
Поважний учасник


З нами з: 03.03.13
Востаннє: 18.04.19
Повідомлень: 223

2018-05-17 10:24  
чЕстолюбний?
igor911 
Відео Гуртом
Відео Гуртом


З нами з: 18.01.08
Востаннє: 19.04.19
Повідомлень: 12308

2018-05-17 11:06  
роман xa написано:
чЕстолюбний

відредагував опис

o.tsven 
Новенький


З нами з: 14.01.13
Востаннє: 18.04.19
Повідомлень: 2

2018-05-18 10:14  
А я так і не зрозумів, чому після всього цього, його не переслідуватиме ця юридична фірма? Адже відомо, що саме він став причиною розслідування проти них, хай навіть в плані підробки відпрацьованих годин? Ця ж компанія вбивала просто за те, що певні працівники хотіли звільнитися?! А тут людина йде з компанії, та ще й ним "нарита" інформація, яка скоріш за все стане причиною розслідування і ймовірно тюремних строків і юридична компанія ТОЧНО ЗНАЄ, хто "нарив" дану інформацію! І після всього, цьому "кроту" вже НІЧОГО не загрожує... Де логіка? Юридична компанія раптом розчулилася і подобріжала?
Ваш часовий пояс: GMT + 2 Години

Нова тема   Відповісти