Мері та відьомська квітка / Mary to Majo no Hana / Mary and the Witch's Flower (2017) AVC

Нові коментарі

Нова тема   Відповісти
Автор Повідомлення
Arch Enemy 
VIP


З нами з: 30.08.12
Востаннє: 19.08.19
Повідомлень: 1689

2018-05-13 21:20  
Мері та відьомська квітка / Mary to Majo no Hana / Mary and the Witch's Flower (2017) AVC




Країна: Японія
Прем'єра: 08.07.2017
Жанр: пригоди, фентезі, казка
Аніместудія: Studio Ponoc

Тривалість: 01год. 42хв. 50сек.

Автор оригіналу: Мері Стюарт
Режисер: Йонебаяші Хіромаса
Музика: Мурамацу Такацугу
Сейю: Суґісакі Хана, Міцушіма Хікарі, Ватанабе Ері, Оотаке Шінобу, Кохіната Фумійо, Сато Джіро, Амамі Юукі та інші.

Сюжет:
Чорний кіт Тіб приводить Мері до дивної квітки в лісі. Згодом дівчинка знаходить мітелку і дивується її рухам. І перш, ніж Мері збирається з думками, мітелка підхоплює дівчинку і несе її понад верхівками дерев, понад хмарами до земель Академії Ендор, де усі екзамени проводяться компетентними повністю кваліфікованими відьмами.

якість:
контейнер: mp4
кодек:
частота кадрів: 23.976 кадрів/сек.
розмір кадру: 720х390 пікс.
бітрейт: ~1 400 кбіт/сек.
бітність: 8 біт.

Аудіо # 1:
мова: українська, двоголосе закадрове озвучення.
кодек:
кількість каналів: 2.0
бітрейт: 192 кбіт/сек.
частота: 48000 Гц

Джерело перекладу та озвучення: AniUA та G&M

текст читали: Gwean та Maslinka
переклад: MadGuy
робота зі звуком: Gwean


MI
General
Complete name : E:\Anime\Mary to Majo no Hana ( 720x390 ).mp4
Format : MPEG-4
Format profile : Base Media
Codec ID : isom (isom/iso2/avc1/mp41)
File size : 1.14 GiB
Duration : 1 h 42 min
Overall bit rate : 1 589 kb/s
Writing application : XviD4PSP 7.0.451 DAILY
Cover : Yes
HDVideo : Yes
encoding_info : / WEBM > MP4 Apple 720p / H264 > VBR-2P 1391kbps Medium / > CBR 192kbps LC

Video
ID : 1
Format : AVC
Format/Info : Advanced Video Codec
Format profile : [email protected]
Format settings : CABAC / 4 Ref Frames
Format settings, CABAC : Yes
Format settings, ReFrames : 4 frames
Codec ID : avc1
Codec ID/Info : Advanced Video Coding
Duration : 1 h 42 min
Bit rate : 1 391 kb/s
Width : 720 pixels
Height : 390 pixels
Display aspect ratio : 1.85:1
Frame rate mode : Constant
Frame rate : 23.976 (24000/1001) FPS
Color space : YUV
Chroma subsampling : 4:2:0
Bit depth : 8 bits
Scan type : Progressive
Bits/(Pixel*Frame) : 0.207
Stream size : 1 023 MiB (88%)
Title : by Jensen / by Jensen
Writing library : core 155 r2901M 7d0ff22
Encoding settings : cabac=1 / ref=3 / deblock=1:0:0 / analyse=0x3:0x113 / me=hex / subme=7 / psy=1 / psy_rd=1.00:0.00 / mixed_ref=1 / me_range=16 / chroma_me=1 / trellis=1 / 8x8dct=1 / cqm=0 / deadzone=21,11 / fast_pskip=1 / chroma_qp_offset=-2 / threads=9 / lookahead_threads=1 / sliced_threads=0 / nr=0 / decimate=1 / interlaced=0 / bluray_compat=0 / constrained_intra=0 / bframes=3 / b_pyramid=2 / b_adapt=1 / b_bias=0 / direct=1 / weightb=1 / open_gop=0 / weightp=2 / keyint=240 / keyint_min=24 / scenecut=40 / intra_refresh=0 / rc_lookahead=40 / rc=2pass / mbtree=1 / bitrate=1391 / ratetol=1.0 / qcomp=0.60 / qpmin=0 / qpmax=69 / qpstep=4 / cplxblur=20.0 / qblur=0.5 / ip_ratio=1.40 / aq=1:1.00
Language : Japanese
Color range : Limited
Color primaries : BT.709
Transfer characteristics : BT.709
Matrix coefficients : BT.709
Menus : 4

Audio
ID : 2
Format :
Format/Info : Advanced Audio Codec
Format profile : LC
Codec ID : mp4a-40-2
Duration : 1 h 42 min
Bit rate mode : Constant
Bit rate : 192 kb/s
Channel(s) : 2 channels
Channel positions : Front: L R
Sampling rate : 48.0 kHz
Frame rate : 46.875 FPS (1024 SPF)
Compression mode : Lossy
Stream size : 141 MiB (12%)
Title : двоголосий закадровий від Gwean & Maslinka / двоголосий закадровий від Gwean & Maslinka
Language : Ukrainian
Default : Yes
Alternate group : 1
Menus : 4

Menu
ID : 4
Codec ID : text
Duration : 1 h 42 min
Language : English
Menu For : 1,2
00:00:00.000 : Avant
00:02:46.375 : Part A
00:04:12.586 : Part B
00:06:44.696 : Part C
00:10:22.914 : Part D
00:15:35.601 : Part E
00:17:37.932 : Part F
00:18:45.666 : Part G
00:20:54.753 : Part H
00:25:37.911 : Part I
00:29:44.074 : Part J
00:36:10.043 : Part K
00:42:03.604 : Part L
00:44:16.737 : Part M
00:48:06.717 : Part N
00:51:04.144 : Part O
00:56:40.022 : Part P
01:00:12.692 : Part Q
01:05:13.868 : Part R
01:12:01.192 : Part S
01:13:22.648 : Part T
01:16:42.932 : Part U
01:21:08.906 : Part V
01:23:39.014 : Part W
01:27:32.372 : Part X
01:34:52.353 : Part Y
01:37:38.352 : ED
Bit rate mode : VBR

Інші версії цього релізу
1080p | 720p | 390p AVC | 384p HWP

Якщо вам подобаються наші релізи, і є бажання чимось допомогти проекту, то будемо раді, якщо ви підтримаєте нас фінансово. І, якщо хочете подякувати за якесь конкретне аніме, або форсувати процес озвучення, прохання вказати у коментарі до переказу.
Підтримати/подякувати «AniUA»
Підтримати/подякувати «Gwean & Maslinka»
Також у нас можна замовити переклад або озвучення



Авторський реліз (завантажувати можна без реєстрації)
 Трекер:    Зареєстрований   

Завантажити / скачати аніме українською



відео для новачків



 Зареєстрований:   2018-05-13 21:20
 Розмір:   1.14 GB 
 Оцінка аніме:   8.7/10 (Голосів: 7)
   
leicheman 
Відео Гуртом - підтримка та поширення
Відео Гуртом - підтримка та поширення


З нами з: 03.07.14
Востаннє: 21.08.19
Повідомлень: 3899

2018-05-13 22:41  
Arch Enemy написано:
розмір кадру: 720х390

Sad (1)

Arch Enemy 
VIP


З нами з: 30.08.12
Востаннє: 19.08.19
Повідомлень: 1689

2018-05-13 23:15  
leicheman написано:
Sad (1)

ліпше 720р-міні стягнути, там все по феншую і відео я спеціально 8-біт взяв, щоб програвалося на хд-плеєрах.

Ваш часовий пояс: GMT + 2 Години

Нова тема   Відповісти