Мері та відьомська квітка / Mary to Majo no Hana / Mary and the Witch's Flower (2017) Ukr/Jap

Нові коментарі

Нова тема   Відповісти
Останній раз роздавалося acoala1 (2019-08-22)
Автор Повідомлення
Arch Enemy 
VIP


З нами з: 30.08.12
Востаннє: 19.08.19
Повідомлень: 1689

2018-05-13 21:10  
Мері та відьомська квітка / Mary to Majo no Hana / Mary and the Witch's Flower (2017) Ukr/Jap




Країна: Японія
Прем'єра: 08.07.2017
Жанр: пригоди, фентезі, казка
Аніместудія: Studio Ponoc

Тривалість: 01год. 42хв. 50сек.

Автор оригіналу: Мері Стюарт
Режисер: Йонебаяші Хіромаса
Музика: Мурамацу Такацугу
Сейю: Суґісакі Хана, Міцушіма Хікарі, Ватанабе Ері, Оотаке Шінобу, Кохіната Фумійо, Сато Джіро, Амамі Юукі та інші.

Сюжет:
Чорний кіт Тіб приводить Мері до дивної квітки в лісі. Згодом дівчинка знаходить мітелку і дивується її рухам. І перш, ніж Мері збирається з думками, мітелка підхоплює дівчинку і несе її понад верхівками дерев, понад хмарами до земель Академії Ендор, де усі екзамени проводяться компетентними повністю кваліфікованими відьмами.

якість:
контейнер: avi
кодек:
частота кадрів: 23.976 кадрів/сек.
розмір кадру: 720х384 пікс.
бітрейт: ~1 770 кбіт/сек.

Аудіо # 1:
мова: українська, двоголосе закадрове озвучення.
кодек:
кількість каналів: 5.1
бітрейт: 384 кбіт/сек.
частота: 48000 Гц

Аудіо # 2:
мова: японська, оригінал
кодек:
кількість каналів: 5.1
бітрейт: 384 кбіт/сек.
частота: 48000 Гц

Джерело перекладу та озвучення: AniUA та G&M

текст читали: Gwean та Maslinka
переклад: MadGuy
робота зі звуком: Gwean


MI
General
Complete name : E:\Anime\Mary to Majo no Hana ( 384p ).avi
Format : AVI
Format/Info : Audio Video Interleave
File size : 1.83 GiB
Duration : 1 h 42 min
Overall bit rate : 2 549 kb/s
Writing application : VirtualDubMod 1.5.10.2 (build 2540/release)
Writing library : VirtualDubMod build 2540/release

Video
ID : 0
Format : MPEG-4 Visual
Format profile : Advanced [email protected]
Format settings : BVOP2 / Custom Matrix
Format settings, BVOP : 2
Format settings, QPel : No
Format settings, GMC : No warppoints
Format settings, Matrix : Custom
Codec ID :
Codec ID/Hint :
Duration : 1 h 42 min
Bit rate : 1 767 kb/s
Width : 720 pixels
Height : 384 pixels
Display aspect ratio : 1.85:1
Frame rate : 23.976 (24000/1001) FPS
Color space : YUV
Chroma subsampling : 4:2:0
Bit depth : 8 bits
Scan type : Progressive
Compression mode : Lossy
Bits/(Pixel*Frame) : 0.267
Stream size : 1.27 GiB (69%)
Writing library : 67

Audio #1
ID : 1
Format : AC-3
Format/Info : Audio Coding 3
Codec ID : 2000
Duration : 1 h 42 min
Bit rate mode : Constant
Bit rate : 384 kb/s
Channel(s) : 6 channels
Channel positions : Front: L C R, Side: L R, LFE
Sampling rate : 48.0 kHz
Frame rate : 31.250 FPS (1536 SPF)
Bit depth : 16 bits
Compression mode : Lossy
Stream size : 282 MiB (15%)
Alignment : Split accross interleaves
Interleave, duration : 42 ms (1.00 video frame)
Interleave, preload duratio : 500 ms
Service kind : Complete Main

Audio #2
ID : 2
Format : AC-3
Format/Info : Audio Coding 3
Codec ID : 2000
Duration : 1 h 42 min
Bit rate mode : Constant
Bit rate : 384 kb/s
Channel(s) : 6 channels
Channel positions : Front: L C R, Side: L R, LFE
Sampling rate : 48.0 kHz
Frame rate : 31.250 FPS (1536 SPF)
Bit depth : 16 bits
Compression mode : Lossy
Stream size : 282 MiB (15%)
Alignment : Split accross interleaves
Interleave, duration : 42 ms (1.00 video frame)
Interleave, preload duratio : 500 ms
Service kind : Complete Main

Інші версії цього релізу
1080p | 720p | 390p AVC | 384p HWP

Якщо вам подобаються наші релізи, і є бажання чимось допомогти проекту, то будемо раді, якщо ви підтримаєте нас фінансово. І, якщо хочете подякувати за якесь конкретне аніме, або форсувати процес озвучення, прохання вказати у коментарі до переказу.
Підтримати/подякувати «AniUA»
Підтримати/подякувати «Gwean & Maslinka»
Також у нас можна замовити переклад або озвучення



Авторський реліз (завантажувати можна без реєстрації)
 Трекер:    Зареєстрований   

Завантажити / скачати аніме українською



відео для новачків



 Зареєстрований:   2018-05-13 21:10
 Розмір:   1.83 GB 
 Оцінка аніме:   10/10 (Голосів: 1)
   
Ваш часовий пояс: GMT + 2 Години

Нова тема   Відповісти