Формула 1. Сезон 2018. Етап 5. Гран-Прі Іспанії. Гонка (13.05.2018) IPTV 1080p

Нові коментарі

Нова тема   Відповісти
Автор Повідомлення
sergiyko.5 
VIP


З нами з: 25.02.16
Востаннє: 24.10.20
Повідомлень: 3615

2018-05-13 20:20  
Формула 1. Сезон 2018. Етап 5. Гран-Прі Іспанії. Гонка (13.05.2018) IPTV 1080p


Формула 1. Сезон 2018. Етап 5. Гран-Прі Іспанії. Гонка (13.05.2018) IPTV 1080p

Жанр: Перегони Формули 1
Країна: Іспанія
Телеканал: Перший автомобільний
Коментатор: Максим Подзігун

Опис:
Гонка п'ятого сезону Гран-Прі Іспанії 2018 року.


Тривалість: 01:57:58
Якість: IPTV

Відео: кодек: розмір кадру: 1920 х 1080 бітрейт: 4519 кб/с
Аудіо: мова: українська кодек: 2.0 бітрейт: 192 кб/с
Про файл:
General
Unique ID : 158447632457796514926460136278278269978 (0x7733E76C55211C74AD561CE11403EC1A)
Complete name : D:\Torrents\SPORT\Formula 1\F1.2018.Race\F1.2018.05.Spain.Race.1080p.IPTV.Ukr.
Format :
Format version : Version 4 / Version 2
File size : 3.88 GiB
Duration : 1 h 57 min
Overall bit rate : 4 713 kb/s
Movie name : F1 2018 05 Spain Race 1080p IPTV by sergiyko
Encoded date : UTC 2018-05-13 17:15:29
Writing application : v23.0.0 ('The Bride Said No') 64-bit
Writing library : libebml v1.3.6 + v1.4.9

Video
ID : 1
Format : AVC
Format/Info : Advanced Video Codec
Format profile : [email protected]
Format settings, CABAC : Yes
Format settings, ReFrames : 4 frames
Format settings, GOP : M=3, N=12
Codec ID : V_MPEG4/ISO/AVC
Duration : 1 h 57 min
Bit rate : 4 519 kb/s
Width : 1 920 pixels
Height : 1 080 pixels
Display aspect ratio : 16:9
Frame rate mode : Constant
Frame rate : 25.000 FPS
Standard : Component
Color space : YUV
Chroma subsampling : 4:2:0
Bit depth : 8 bits
Scan type : Progressive
Bits/(Pixel*Frame) : 0.087
Stream size : 3.72 GiB (96%)
Title : F1 2018 05 Spain Race
Language : English
Default : Yes
Forced : No
Color range : Limited
Color primaries : BT.709
Transfer characteristics : BT.709
Matrix coefficients : BT.709

Audio
ID : 2
Format : MPEG Audio
Format version : Version 1
Format profile : Layer 2
Codec ID : A_MPEG/L2
Codec ID/Hint : MP2
Duration : 1 h 57 min
Bit rate mode : Constant
Bit rate : 192 kb/s
Channel(s) : 2 channels
Sampling rate : 48.0 kHz
Frame rate : 41.667 FPS (1152 spf)
Compression mode : Lossy
Stream size : 162 MiB (4%)
Title : 1 Авто | Максим Подзігун
Language : Ukrainian
Default : Yes
Forced : No
Скріншоти:


Автор зведення: sergiyko


 Трекер:    Зареєстрований   

Завантажити / скачати торрент



відео для новачків



 Зареєстрований:   2018-05-13 20:20
 Розмір:   3.88 GB 
 Оцінка:   9.9/10 (Голосів: 29)
   
anatoxa 
Новенький


З нами з: 24.10.14
Востаннє: 21.10.20
Повідомлень: 11

2018-05-13 20:29  
дякую!
Клятий олл.тв (в усіх підписках) не дає змоги переглянути запис трансляції у веб браузері (як це дає мегого), лише з мобільного додатку ;(

fronders 
Новенький


З нами з: 13.02.11
Востаннє: 18.10.20
Повідомлень: 3

2018-05-13 20:46  
Дякую за оперативність!!!
VicCob 
Свій


З нами з: 16.06.10
Востаннє: 11.10.20
Повідомлень: 57

2018-05-13 21:17  
Дякую!
taramon 
Частий відвідувач


З нами з: 28.09.09
Востаннє: 19.10.20
Повідомлень: 45

2018-05-13 22:44  
дякую!!!!!!!!!!!!
Ваш часовий пояс: GMT + 2 Години

Нова тема   Відповісти