Євробачення 2018. Фінал / Eurovision 2018. Final (12.05.2018) 720p 2xUkr

Нові коментарі

Нова тема   Відповісти
Автор Повідомлення
sergiyko.5 
VIP


З нами з: 25.02.16
Востаннє: 15.09.19
Повідомлень: 2557

2018-05-13 17:20  
Євробачення 2018. Фінал / Eurovision 2018. Final (12.05.2018) 720p 2xUkr


Євробачення 2018. Фінал / Eurovision 2018. Final (12.05.2018) 720p 2xUkr

Жанр: Пісенний конкурс
Країна: Португалія
Телеканал: UA Перший, СТБ
Коментатори: Тімур Мірошниченко та Джамала, Сергій Притула

Опис:
Фінал Євробачення-2018 відбувся у Лісабоні в суботу, 12 травня о 22:00 годині за київським часом.



Треклист:
01. Україна. MELOVIN – "Under the Ladder";
02. Іспанія. Amaia y Alfred – "Tu canción";
03. Словенія. Lea Sirk – "Hvala, ne!";
04. Литва. Ieva Zasimauskaitė – "When We’re Old";
05. Австрія. Cesár Sampson – "Nobody But You";
06. Естонія. Elina Nechayeva – "La Forza";
07. Норвегія. Alexander Rybak – "That's How You Write А Song";
08. Португалія. Cláudia Pascoal – "O jardim";
09. Великобританія. SuRie – "Storm";
10. Сербія. Sanja Ilić & Balkanika – "Nova deca";
11. Німеччина. Michael Schulte – "You Let Me Walk Alone";
12. Албанія. Eugent Bushpepa – "Mall";
13. Франція. Madame Monsieur – "Mercy";
14. Чехія. Mikolas Josef – "Lie to Me";
15. Данія. Rasmussen – "Higher Ground";
16. Австралія. Jessica Mauboy – "We Got Love";
17. Фінляндія. Saara Aalto – "Monsters";
18. Болгарія. EQUINOX – "Bones";
19. Молдова. DoReDos – "My Lucky Day";
20. Швеція. Benjamin Ingrosso – "Dance You Off";
21. Угорщина. AWS – "Viszlát nyár";
22. Ізраїль. Netta Barzilai –"TOY";
23. Нідерланди. Waylon – "Outlaw In 'Em".
24. Ірландія. Ryan O’Shaughnessy – "Together";
25. Кіпр. Eleni Foureira – "Fuego";
26. Італія. Ermal Meta & Fabrizio Moro "Non mi avete fatto niente".

Тривалість: 03:31:36
Якість:

Відео: кодек: розмір кадру: 1280 х 720 бітрейт: 4700 кб/с
Аудіо: мова: українська кодек: MP2 2.0 бітрейт: 192 кб/с UA Перший
Аудіо: мова: українська кодек: MP2 2.0 бітрейт: 192 кб/с СТБ
Про файл:
General
Unique ID : 9157984067060449461289312907017021961 (0x6E3C3799E45EE259E2022D8B5636A09)
Complete name : E:\VideoDisk\Eurovision Song Contest.2018.Final.720p..
Format :
Format version : Version 4 / Version 2
File size : 7.54 GiB
Duration : 3 h 31 min
Overall bit rate : 5 099 kb/s
Movie name : Eurovision Song Contest 2018 Final 720p by sergiyko
Encoded date : UTC 2018-05-13 13:59:04
Writing application : v23.0.0 ('The Bride Said No') 64-bit
Writing library : libebml v1.3.6 + v1.4.9

Video
ID : 1
Format : AVC
Format/Info : Advanced Video Codec
Format profile : [email protected]
Format settings, CABAC : Yes
Format settings, ReFrames : 7 frames
Codec ID : V_MPEG4/ISO/AVC
Duration : 3 h 31 min
Bit rate : 4 712 kb/s
Width : 1 280 pixels
Height : 720 pixels
Display aspect ratio : 16:9
Frame rate mode : Constant
Frame rate : 25.000 FPS
Color space : YUV
Chroma subsampling : 4:2:0
Bit depth : 8 bits
Scan type : Progressive
Bits/(Pixel*Frame) : 0.205
Stream size : 6.96 GiB (92%)
Title : Eurovision Song Contest 2018 Final
Writing library : core 152 r2851 ba24899
Encoding settings : cabac=1 / ref=7 / deblock=1:-1:-1 / analyse=0x3:0x113 / me=hex / subme=9 / psy=1 / psy_rd=1.00:0.15 / mixed_ref=1 / me_range=16 / chroma_me=1 / trellis=2 / 8x8dct=1 / cqm=0 / deadzone=21,11 / fast_pskip=1 / chroma_qp_offset=-3 / threads=22 / lookahead_threads=1 / sliced_threads=0 / nr=0 / decimate=1 / interlaced=0 / bluray_compat=0 / constrained_intra=0 / bframes=5 / b_pyramid=2 / b_adapt=1 / b_bias=0 / direct=3 / weightb=1 / open_gop=0 / weightp=2 / keyint=250 / keyint_min=25 / scenecut=40 / intra_refresh=0 / rc_lookahead=50 / rc=crf / mbtree=1 / crf=20.0 / qcomp=0.60 / qpmin=0 / qpmax=69 / qpstep=4 / ip_ratio=1.40 / aq=1:1.00
Language : English
Default : Yes
Forced : No

Audio #1
ID : 2
Format : MPEG Audio
Format version : Version 1
Format profile : Layer 2
Codec ID : A_MPEG/L2
Codec ID/Hint : MP2
Duration : 3 h 31 min
Bit rate mode : Constant
Bit rate : 192 kb/s
Channel(s) : 2 channels
Sampling rate : 48.0 kHz
Frame rate : 41.667 FPS (1152 spf)
Compression mode : Lossy
Stream size : 291 MiB (4%)
Title : UA Перший | Тімур Мірошниченко та Джамала
Language : Ukrainian
Default : Yes
Forced : No

Audio #2
ID : 3
Format : MPEG Audio
Format version : Version 1
Format profile : Layer 2
Codec ID : A_MPEG/L2
Codec ID/Hint : MP2
Duration : 3 h 31 min
Bit rate mode : Constant
Bit rate : 192 kb/s
Channel(s) : 2 channels
Sampling rate : 48.0 kHz
Frame rate : 41.667 FPS (1152 spf)
Compression mode : Lossy
Stream size : 291 MiB (4%)
Title : СТБ | Сергій Притула
Language : Ukrainian
Default : No
Forced : No
Скріншоти:


Запис/зведення: sergiyko


 Трекер:    Зареєстрований   

Завантажити / скачати передачу українською



відео для новачків



 Зареєстрований:   2018-05-13 17:20
 Розмір:   7.54 GB 
 Оцінка передачі:   8.5/10 (Голосів: 12)
   
Dan160688 
Новенький


З нами з: 08.09.12
Востаннє: 05.05.19
Повідомлень: 1

2018-05-13 19:43  
Щиро дякую за 720 та розмір)
DarkLan 
Новенький


З нами з: 14.11.12
Востаннє: 14.09.19
Повідомлень: 19

2018-05-14 00:54  
Дякую Happy
inessa90 
Новенький


З нами з: 22.03.17
Востаннє: 14.09.19
Повідомлень: 6

2018-05-14 11:43  
як скачати версію СТБ?
igor911 
Модератор відео


З нами з: 18.01.08
Востаннє: 16.09.19
Повідомлень: 13339

2018-05-14 14:00  
inessa90, всі версії вантажаться в одному файлі, при перегляді просто перемкніть звукову доріжку в програвачі.
inessa90 
Новенький


З нами з: 22.03.17
Востаннє: 14.09.19
Повідомлень: 6

2018-05-14 14:43  
igor911
дякую!!!

Ваш часовий пояс: GMT + 2 Години

Нова тема   Відповісти