Євробачення 2018. Фінал / Eurovision 2018. Final (12.05.2018) HDTV 1080i 2xUkr

Нові коментарі

Нова тема   Відповісти
Автор Повідомлення
sergiyko.5 
VIP


З нами з: 25.02.16
Востаннє: 19.03.19
Повідомлень: 2186

2018-05-13 13:46  
Євробачення 2018. Фінал / Eurovision 2018. Final (12.05.2018) HDTV 1080i 2xUkr


Євробачення 2018. Фінал / Eurovision 2018. Final (12.05.2018) HDTV 1080i 2xUkr

Жанр: Пісенний конкурс
Країна: Португалія
Телеканал: UA Перший, СТБ
Коментатори: Тімур Мірошниченко та Джамала, Сергій Притула

Опис:
Фінал Євробачення-2018 відбувся у Лісабоні в суботу, 12 травня о 22:00 годині за київським часом.



Треклист:
01. Україна. MELOVIN – "Under the Ladder";
02. Іспанія. Amaia y Alfred – "Tu canción";
03. Словенія. Lea Sirk – "Hvala, ne!";
04. Литва. Ieva Zasimauskaitė – "When We’re Old";
05. Австрія. Cesár Sampson – "Nobody But You";
06. Естонія. Elina Nechayeva – "La Forza";
07. Норвегія. Alexander Rybak – "That's How You Write А Song";
08. Португалія. Cláudia Pascoal – "O jardim";
09. Великобританія. SuRie – "Storm";
10. Сербія. Sanja Ilić & Balkanika – "Nova deca";
11. Німеччина. Michael Schulte – "You Let Me Walk Alone";
12. Албанія. Eugent Bushpepa – "Mall";
13. Франція. Madame Monsieur – "Mercy";
14. Чехія. Mikolas Josef – "Lie to Me";
15. Данія. Rasmussen – "Higher Ground";
16. Австралія. Jessica Mauboy – "We Got Love";
17. Фінляндія. Saara Aalto – "Monsters";
18. Болгарія. EQUINOX – "Bones";
19. Молдова. DoReDos – "My Lucky Day";
20. Швеція. Benjamin Ingrosso – "Dance You Off";
21. Угорщина. AWS – "Viszlát nyár";
22. Ізраїль. Netta Barzilai –"TOY";
23. Нідерланди. Waylon – "Outlaw In 'Em".
24. Ірландія. Ryan O’Shaughnessy – "Together";
25. Кіпр. Eleni Foureira – "Fuego";
26. Італія. Ermal Meta & Fabrizio Moro "Non mi avete fatto niente".

Тривалість: 03:31:29
Якість: HDTV

Відео: кодек: розмір кадру: 1920 х 1080 бітрейт: 11300 кб/с
Аудіо: мова: українська кодек: MP2 2.0 бітрейт: 192 кб/с UA Перший
Аудіо: мова: українська кодек: MP2 2.0 бітрейт: 192 кб/с СТБ
Про файл:
General
Unique ID : 217271289716319677399947973243290907420 (0xA374EDA48BE3A73F285EFEF8C7E9F31C)
Complete name : E:\VideoDisk\Eurovision Song Contest 2018.Final.1080i.HDTV.
Format :
Format version : Version 4 / Version 2
File size : 17.3 GiB
Duration : 3 h 31 min
Overall bit rate : 11.7 Mb/s
Movie name : Eurovision Song Contest 2018 Final 1080i HDTV by sergiyko
Encoded date : UTC 2018-05-13 11:35:33
Writing application : v23.0.0 ('The Bride Said No') 64-bit
Writing library : libebml v1.3.6 + v1.4.9

Video
ID : 1
Format : AVC
Format/Info : Advanced Video Codec
Format profile : [email protected]
Format settings, CABAC : Yes
Format settings, ReFrames : 4 frames
Format settings, GOP : M=4, N=28
Codec ID : V_MPEG4/ISO/AVC
Duration : 3 h 31 min
Bit rate : 11.3 Mb/s
Width : 1 920 pixels
Height : 1 080 pixels
Display aspect ratio : 16:9
Frame rate mode : Variable
Frame rate : 50.000 FPS
Original frame rate : 25.000 FPS
Standard : Component
Color space : YUV
Chroma subsampling : 4:2:0
Bit depth : 8 bits
Scan type : Interlaced
Scan type, store method : Separated fields
Scan order : Top Field First
Bits/(Pixel*Frame) : 0.109
Stream size : 16.7 GiB (97%)
Title : Eurovision Song Contest 2018 Final
Language : English
Default : Yes
Forced : No
Color range : Limited
Color primaries : BT.709
Transfer characteristics : BT.709
Matrix coefficients : BT.709

Audio #1
ID : 2
Format : MPEG Audio
Format version : Version 1
Format profile : Layer 2
Codec ID : A_MPEG/L2
Codec ID/Hint : MP2
Duration : 3 h 31 min
Bit rate mode : Constant
Bit rate : 192 kb/s
Channel(s) : 2 channels
Sampling rate : 48.0 kHz
Frame rate : 41.666 FPS (1152 spf)
Compression mode : Lossy
Delay relative to video : 22 ms
Stream size : 290 MiB (2%)
Title : UA Перший | Тімур Мірошниченко та Джамала
Language : Ukrainian
Default : Yes
Forced : No

Audio #2
ID : 3
Format : MPEG Audio
Format version : Version 1
Format profile : Layer 2
Codec ID : A_MPEG/L2
Codec ID/Hint : MP2
Duration : 3 h 31 min
Bit rate mode : Constant
Bit rate : 192 kb/s
Channel(s) : 2 channels
Sampling rate : 48.0 kHz
Frame rate : 41.666 FPS (1152 spf)
Compression mode : Lossy
Delay relative to video : 21 ms
Stream size : 290 MiB (2%)
Title : СТБ | Сергій Притула
Language : Ukrainian
Default : No
Forced : No
Скріншоти:


Зведення: sergiyko


 Трекер:    Зареєстрований   

Завантажити / скачати передачу українською



відео для новачків



 Зареєстрований:   2018-05-13 13:46
 Розмір:   17.28 GB 
 Оцінка передачі:   7.8/10 (Голосів: 4)
   
inessa90 
Новенький


З нами з: 22.03.17
Востаннє: 19.03.19
Повідомлень: 6

2018-05-13 15:39  
можно меньше чтоб был размер?
ssTAss 
Модератор музики


З нами з: 05.07.08
Востаннє: 20.03.19
Повідомлень: 14820

2018-05-13 15:47  
inessa90
в бан захотіли?
Цитата:
Всім без винятку заборонено:
2.1 Спілкуватися іншою мовою, аніж літературною українською; використовувати для написання українських слів іншу абетку, аніж кирилицю

https://toloka.to/faq.php

ALFROMEDA 
Відео Гуртом - підтримка та поширення
Відео Гуртом - підтримка та поширення


З нами з: 09.07.12
Востаннє: 20.03.19
Повідомлень: 333

2018-05-13 16:19  
зробить хтось AVC, 17гб перебір
inessa90 
Новенький


З нами з: 22.03.17
Востаннє: 19.03.19
Повідомлень: 6

2018-05-13 17:05  
ssTAss
вибачте, я не бачила правила
раніше нічого не коментувала тут

Ваш часовий пояс: GMT + 2 Години

Нова тема   Відповісти