Аероплан (Високо літаючи) / Airplane! (1980) 1080p Ukr/Eng | Sub Eng

Нові коментарі

Нова тема   Відповісти
Автор Повідомлення
boroznaya 
Попереджень: 1
Попереджень: 1 


З нами з: 02.11.12
Востаннє: 19.04.19
Повідомлень: 2966

2018-05-13 13:47  
Аероплан (Високо літаючи) / Airplane! (1980) 1080p Ukr/Eng | Sub Eng

Аероплан (Високо літаючи) / Airplane! (1980) 1080p Ukr/Eng | Sub Eng


Жанр: пародія, комедія, романтичний
Країна: США



Кінокомпанія: Paramount Pictures
Режисер: Джим Абрахамс, Девід Цукер, Джеррі Цукер
Актори: Карім Абдул-Джаббар, Ллойд Бріджес, Пітер Ґрейвз, Джулі Гоґерті, Роберт Гейс, Леслі Нільсен, Лорна Паттерсон, Роберт Стек, Стівен Стакер

Сюжет:
Роберт Хейс, колишній військовий пілот, опинився на борту літака, екіпаж якого через харчове отруєння виявився не в змозі керувати аеробусом.
Хейс, разом зі стюардесою, змушені рятуватися і стати рятівниками строкатої компанії пасажирів, які опинилися на межі загибелі.
Новоспеченого пілота і його помічницю чекають неймовірні пригоди.


Тривалість: 01:27:42
Якість: 1080p
Відео:
кодек:
розмір кадру: 1920 x 1080
бітрейт: 11.3 Mб/с

Аудіо # 1:
мова: українська
переклад: двоголосий закадровий
кодек: 5.1
бітрейт: 384 кб/с

Аудіо # 2:
мова: англійська
переклад: оригінал
кодек: 5.1
бітрейт: 1510 кб/с

Субтитри:
мова: англійська
тип: програмні (м'які)
формат: *.srt
Info
D:\Фільми\Готові релізи\Airplane (1980) [Ukr, Eng, sub. Eng] 1080p [Hurtom].
General
Unique ID : 228446034476461100630749720854247639166 (0xABDD1B18D1ED2C0E5B046280C1BA087E)
Complete name : D:\Фільми\Готові релізи\Airplane (1980) [Ukr, Eng, sub. Eng] 1080p [Hurtom].
Format :
Format version : Version 4 / Version 2
File size : 8.11 GiB
Duration : 1h 27mn
Overall bit rate : 13.2 Mbps
Encoded date : UTC 2018-05-13 07:11:54
Writing application : v20.0.0 ('I Am The Sun') 64-bit
Writing library : libebml v1.3.5 + v1.4.8
DURATION : 01:27:42.048000000
NUMBER_OF_FRAMES : 164439
NUMBER_OF_BYTES : 252578304
_STATISTICS_WRITING_APP : v20.0.0 ('I Am The Sun') 64-bit
_STATISTICS_WRITING_DATE_UTC : 2018-05-13 07:11:54
_STATISTICS_TAGS : BPS DURATION NUMBER_OF_FRAMES NUMBER_OF_BYTES

Video #1
ID : 1
Format : AVC
Format/Info : Advanced Video Codec
Format profile : [email protected]
Format settings, CABAC : Yes
Format settings, ReFrames : 4 frames
Codec ID : V_MPEG4/ISO/AVC
Duration : 1h 27mn
Bit rate : 11.3 Mbps
Width : 1 920 pixels
Height : 1 080 pixels
Display aspect ratio : 16:9
Frame rate : 23.976 fps
Color space : YUV
Chroma subsampling : 4:2:0
Bit depth : 8 bits
Scan type : Progressive
Bits/(Pixel*Frame) : 0.228
Stream size : 6.79 GiB (84%)
Writing library : core 118 r2085 8a62835
Encoding settings : cabac=1 / ref=4 / deblock=1:-2:-2 / analyse=0x3:0x113 / me=umh / subme=10 / psy=1 / psy_rd=1.20:0.20 / mixed_ref=1 / me_range=32 / chroma_me=1 / trellis=2 / 8x8dct=1 / cqm=0 / deadzone=21,11 / fast_pskip=0 / chroma_qp_offset=-3 / threads=9 / sliced_threads=0 / nr=0 / decimate=0 / interlaced=0 / bluray_compat=0 / constrained_intra=0 / bframes=5 / b_pyramid=2 / b_adapt=2 / b_bias=0 / direct=3 / weightb=1 / open_gop=0 / weightp=2 / keyint=250 / keyint_min=2 / scenecut=40 / intra_refresh=0 / rc_lookahead=72 / rc=2pass / mbtree=1 / bitrate=11343 / ratetol=1.0 / qcomp=0.60 / qpmin=10 / qpmax=51 / qpstep=4 / cplxblur=20.0 / qblur=0.5 / vbv_maxrate=38000 / vbv_bufsize=38000 / nal_hrd=none / ip_ratio=1.40 / aq=1:1.00
Language : English
Default : Yes
Forced : No

Audio #2
ID : 2
Format : AC-3
Format/Info : Audio Coding 3
Mode extension : CM (complete main)
Codec ID : A_AC3
Duration : 1h 27mn
Bit rate mode : Constant
Bit rate : 384 Kbps
Channel(s) : 6 channels
Channel positions : Front: L C R, Side: L R, LFE
Sampling rate : 48.0 KHz
Bit depth : 16 bits
Compression mode : Lossy
Stream size : 241 MiB (3%)
Title : Двоголосий закадровий, Новий канал
Language : Ukrainian
Default : Yes
Forced : No

Audio #3
ID : 3
Format :
Format/Info : Digital Theater Systems
Codec ID : A_DTS
Duration : 1h 27mn
Bit rate mode : Constant
Bit rate : 1 510 Kbps
Channel(s) : 6 channels
Channel positions : Front: L C R, Side: L R, LFE
Sampling rate : 48.0 KHz
Bit depth : 24 bits
Compression mode : Lossy
Stream size : 947 MiB (11%)
Language : English
Default : No
Forced : No

Text #4
ID : 4
Format : UTF-8
Codec ID : S_TEXT/UTF8
Codec ID/Info : UTF-8 Plain Text
Language : English
Default : No
Forced : No
Скріншоти









Подяка за запис звуку пану МАКАРОННІК'у та rooster'у за його синхронізацію.

Джерело: &
Особиста оцінка: 8 - мені сподобалося

Не забуваємо Дякувати!




Срібний реліз (на рейтинг впливає 50% завантаженого)
 Трекер:    Зареєстрований   

Завантажити / скачати фільм українською



відео для новачків



 Зареєстрований:   2018-05-13 13:47
 Розмір:   8.11 GB 
 Оцінка фільму:   8.8/10 (Голосів: 9)
   
Інші релізи
   Аероплан / Airplane! (1980) Ukr/Eng | Sub Eng rooster  16 / 1   1.69 GB   2012-11-04 15:18 
boroznaya 
Попереджень: 1
Попереджень: 1 


З нами з: 02.11.12
Востаннє: 19.04.19
Повідомлень: 2966

2018-05-13 13:54  
Фільм "Аероплан" на роздачі!
Приємного перегляду!

splinsei 
Свій


З нами з: 19.01.16
Востаннє: 16.04.19
Повідомлень: 52

2019-02-13 14:34  
Офігенна комедія, яка смішить незалежно від того, дивишся її вперше, чи вдесяте
Ваш часовий пояс: GMT + 2 Години

Нова тема   Відповісти