Відок / Vidocq (2001) 1080p Ukr/Fre | Sub Fre/Eng

Нові коментарі

Нова тема   Відповісти
Автор Повідомлення
boroznaya 
Попереджень: 1
Попереджень: 1 


З нами з: 02.11.12
Востаннє: 25.04.19
Повідомлень: 2966

2018-05-13 12:37  
Відок / Vidocq (2001) 1080p Ukr/Fre | Sub Fre/Eng

Відок / Vidocq (2001) 1080p Ukr/Fre | Sub Fre/Eng


Жанр: бойовик, трилер, кримінальний, драма, детектив
Країна: Франція



Кінокомпанія: RF2K Productions, Studio Canal, TF1 Films Production, Canal+, Centre National de la Cinématographie
Режисер: Пітоф
Актори: Жерар Депардьє, Гійом Кане, Інес Састре, Андре Дюссольє, Едіт Скоб, Мусса Мааскрі, Жан-П'єр Гос, Ізабель Рено, Жан-Поль Дюбуа, Андре Пенверн

Сюжет:
Париж ХIХ століття охоплений панікою. У його «череві» завівся серійний вбивця, якого може спіймати лише геніальний детектив Відок. Реальний історичний персонаж, який не знає спочинку - особливо у виконанні громоподібного Депардьє - ні у своїх перевтіленнях, ні в диявольській інтуїції. Він переслідує загадкового Алхіміка. Чарівні декорації міста, яке розривають спалахи блискавок, потаємні двері, одурманені наркотичним божевіллям, в хитромудру лабораторію, де паморочиться голова.


Тривалість: 01:37:39
Якість: 1080p
Відео:
кодек:
розмір кадру: 1916х1044
бітрейт: 15,1 Мб/с

Аудіо # 1:
мова: українська
переклад: двоголосий закадровий
кодек: 5.1
бітрейт: 384 кб/с

Українською мовою фільм озвучено студією "Контакт" на замовлення телеканалу 1+1

Аудіо # 2:
мова: французька
переклад: оригінал
кодек: 5.1
бітрейт: 640 кб/с

Субтитри:
мова: французька
тип: програмні (м'які)
формат: *.srt

Субтитри:
мова: англійська
тип: програмні (м'які)
формат: *.srt
Info
D:\Фільми\Готові релізи\Vidocq (2001) [Ukr, Fre, sub. Fre, Eng] 1080p [Hurtom].
General
Unique ID : 142139676507714421150801420846812775873 (0x6AEF1B1E0B0C699403DD7AF04D9645C1)
Complete name : D:\Фільми\Готові релізи\Vidocq (2001) [Ukr, Fre, sub. Fre, Eng] 1080p [Hurtom].
Format :
Format version : Version 4 / Version 2
File size : 11.2 GiB
Duration : 1h 37mn
Overall bit rate : 16.4 Mbps
Encoded date : UTC 2018-05-13 07:52:36
Writing application : v20.0.0 ('I Am The Sun') 64-bit
Writing library : libebml v1.3.5 + v1.4.8
DURATION : 01:37:39.072000000
NUMBER_OF_FRAMES : 183096
NUMBER_OF_BYTES : 281235456
_STATISTICS_WRITING_APP : v20.0.0 ('I Am The Sun') 64-bit
_STATISTICS_WRITING_DATE_UTC : 2018-05-13 07:52:36
_STATISTICS_TAGS : BPS DURATION NUMBER_OF_FRAMES NUMBER_OF_BYTES

Video #1
ID : 1
Format : AVC
Format/Info : Advanced Video Codec
Format profile : [email protected]
Format settings, CABAC : Yes
Format settings, ReFrames : 4 frames
Codec ID : V_MPEG4/ISO/AVC
Duration : 1h 37mn
Bit rate : 15.1 Mbps
Width : 1 916 pixels
Height : 1 044 pixels
Display aspect ratio : 16:9
Frame rate : 23.976 fps
Color space : YUV
Chroma subsampling : 4:2:0
Bit depth : 8 bits
Scan type : Progressive
Bits/(Pixel*Frame) : 0.314
Stream size : 10.3 GiB (92%)
Writing library : core 129 r2245kMod bc13772
Encoding settings : cabac=1 / ref=4 / deblock=1:-3:-3 / analyse=0x3:0x113 / me=umh / subme=11 / psy=1 / fade_compensate=0.00 / psy_rd=1.00:0.00 / mixed_ref=1 / me_range=48 / chroma_me=1 / trellis=2 / 8x8dct=1 / cqm=0 / deadzone=21,11 / fast_pskip=1 / chroma_qp_offset=-2 / threads=12 / lookahead_threads=2 / sliced_threads=0 / nr=0 / decimate=1 / interlaced=0 / bluray_compat=0 / constrained_intra=0 / bframes=8 / b_pyramid=2 / b_adapt=2 / b_bias=0 / direct=3 / weightb=1 / open_gop=0 / weightp=2 / keyint=250 / keyint_min=23 / scenecut=40 / intra_refresh=0 / rc_lookahead=40 / rc=crf / mbtree=0 / crf=17.0000 / qcomp=0.60 / qpmin=0 / qpmax=69 / qpstep=4 / vbv_maxrate=50000 / vbv_bufsize=62500 / crf_max=0.0 / nal_hrd=none / ip_ratio=1.40 / pb_ratio=1.30 / aq=1:0.80
Language : French
Default : Yes
Forced : No
Matrix coefficients : BT.709-5, BT.1361, IEC 61966-2-4 709, SMPTE RP177

Audio #2
ID : 2
Format : AC-3
Format/Info : Audio Coding 3
Mode extension : CM (complete main)
Codec ID : A_AC3
Duration : 1h 37mn
Bit rate mode : Constant
Bit rate : 384 Kbps
Channel(s) : 6 channels
Channel positions : Front: L C R, Side: L R, LFE
Sampling rate : 48.0 KHz
Bit depth : 16 bits
Compression mode : Lossy
Stream size : 268 MiB (2%)
Title : Двоголосий закадровий, 1+1
Language : Ukrainian
Default : Yes
Forced : No

Audio #3
ID : 3
Format : AC-3
Format/Info : Audio Coding 3
Mode extension : CM (complete main)
Codec ID : A_AC3
Duration : 1h 37mn
Bit rate mode : Constant
Bit rate : 640 Kbps
Channel(s) : 6 channels
Channel positions : Front: L C R, Side: L R, LFE
Sampling rate : 48.0 KHz
Bit depth : 16 bits
Compression mode : Lossy
Stream size : 447 MiB (4%)
Language : French
Default : No
Forced : No

Text #4
ID : 4
Format : UTF-8
Codec ID : S_TEXT/UTF8
Codec ID/Info : UTF-8 Plain Text
Language : French
Default : No
Forced : No

Text #5
ID : 5
Format : UTF-8
Codec ID : S_TEXT/UTF8
Codec ID/Info : UTF-8 Plain Text
Language : English
Default : No
Forced : No
Скріншоти







Спасибі пану hellforces за чудовий постер!

Джерело: &
Особиста оцінка: 8 - мені сподобалося

Не забуваємо Дякувати!


Срібний реліз (на рейтинг впливає 50% завантаженого)
 Трекер:    Зареєстрований   

Завантажити / скачати фільм українською



відео для новачків



 Зареєстрований:   2018-05-13 15:03
 Розмір:   11.2 GB 
 Оцінка фільму:   9.1/10 (Голосів: 13)
   
Інші релізи
   Відок / Vidocq (2001) Mendez  4 / 0   1.46 GB   2009-10-04 20:36 
boroznaya 
Попереджень: 1
Попереджень: 1 


З нами з: 02.11.12
Востаннє: 25.04.19
Повідомлень: 2966

2018-05-13 12:43  
Фільм "Відок" на роздачі!
Приємного перегляду!

igor911 
Відео Гуртом
Відео Гуртом


З нами з: 18.01.08
Востаннє: 26.04.19
Повідомлень: 12355

2018-05-13 15:24  
boroznaya написано:
Зареєстрований:   2018-05-13 15:03

що змінилось в релізі?

boroznaya 
Попереджень: 1
Попереджень: 1 


З нами з: 02.11.12
Востаннє: 25.04.19
Повідомлень: 2966

2018-05-13 15:31  
igor911 написано:
що змінилось в релізі?

Аж самому смішно ... Нічого не змінилось. Випадково вийшло ...

Oleksa9 
VIP


З нами з: 17.05.12
Востаннє: 26.04.19
Повідомлень: 342

2018-05-13 17:07  
Депардьє? Це одразу ні.
Kamper 
Свій


З нами з: 21.01.13
Востаннє: 25.04.19
Повідомлень: 55

2018-05-13 22:01  
Це візуальний шедевр, на початку 00-х справив найсильніше кіновраження після Матриці.
hztn 
Частий відвідувач


З нами з: 22.09.10
Востаннє: 26.04.19
Повідомлень: 43

2019-03-18 01:25  
Останній скріншот містить спойлер!
Ваш часовий пояс: GMT + 2 Години

Нова тема   Відповісти