Борщ (Borshch) - Дискографія (2 альбоми + 1 Split) (2004-2006) [APE] | Punk Rock — Українська музика (lossless)

Борщ (Borshch) - Дискографія (2 альбоми + 1 Split) (2004-2006) [APE] | Punk Rock

Нові коментарі

Нова тема   Відповісти
Автор Повідомлення
Anonymous 







2018-05-12 23:59  
Борщ (Borshch) - Дискографія (2 альбоми + 1 Split) (2004-2006) [APE] | Punk Rock

Борщ (Borshch) - Дискографія (2 альбоми + 1 Split) (2004-2006) [APE] | Punk Rock


Стиль: Punk Rock
Країна, місто: Україна, Київ
Видавець: Moon Records
Виконавці:
Здоренко Юрій (гітара, вокал)
Зюбін Вадим (ударні)
Піпа Олександр (бас-гітара)
Пісні:
    2004 - borshch (Maxi-Single) (відсутній в роздачі)
    розшукується

    Пісні:
    01 - Audio/Video
    02 - Mustapha Ibrahim
    03 - Епоха юних (Привид-людожер)
    04 - Я летел
    05 - Увага
    06 - Магнитофон
    07 - Конфорка
    08 - Электричество
    09 - Падло
    10 - Audio/Video (Disco)
    2004 - Падло

    Пісні:
      01 - Audio/Video
      02 - Крос
      03 - Аня, Йо!
      04 - Будьмо!
      05 - Епоха юних
      06 - Лесные Робинзоны
      07 - Забагато енергії
      08 - Сніжна королева
      09 - Царівна-жаба
      10 - Гогі Гоген
      11 - Дуля
      12 - П’яна свиня
      13 - Дзеркало
      14 - Кураре конкуренту
      15 - Уругвай
      16 - Криниченька
      17 - Она
      18 - Звёздный танец
      19 - Магнитофон
      20 - Падло

    Тривалість: 01:03:10
    Мова: українська (1-5, 7-16, 20), кацапська (6, 17-19)
    Бітрейт: 1013 кб/с
    log
    EAC extraction logfile from 20. March 2005, 14:03 for CD
    Borshch / Padlo

    Used drive : PLEXTOR DVDR PX-708A Adapter: 1 ID: 0
    Read mode : Secure with NO C2, accurate stream, disable cache
    Combined read/write offset correction : 0
    Overread into Lead-In and Lead-Out : No

    Used output format : Internal WAV Routines
    44.100 Hz; 16 Bit; Stereo

    Other options :
    Fill up missing offset samples with silence : Yes
    Delete leading and trailing silent blocks : No
    Installed external ASPI interface

    Range status and errors
    Selected range
    Filename E:\Borshch\2004. Padlo\Borshch - Padlo.wav

    Peak level 99.0 %
    Range quality 100.0 %
    CRC 33DD1E29
    Copy OK

    No errors occured

    End of status report
    cue
    REM GENRE Punk Rock
    REM DATE 2004
    PERFORMER "Борщ"
    TITLE "Падло"
    FILE "Borshch - Padlo.ape" WAVE
    TRACK 01 AUDIO
    TITLE "Audio/Video"
    FLAGS DCP
    INDEX 01 00:00:00
    TRACK 02 AUDIO
    TITLE "Крос"
    FLAGS DCP
    INDEX 01 02:44:58
    TRACK 03 AUDIO
    TITLE "Аня, Йо!"
    FLAGS DCP
    INDEX 01 04:55:35
    TRACK 04 AUDIO
    TITLE "Будьмо!"
    FLAGS DCP
    INDEX 01 07:20:58
    TRACK 05 AUDIO
    TITLE "Епоха юних"
    FLAGS DCP
    INDEX 01 10:14:17
    TRACK 06 AUDIO
    TITLE "Лесные Робинзоны"
    FLAGS DCP
    INDEX 01 13:07:26
    TRACK 07 AUDIO
    TITLE "Забагато енергії"
    FLAGS DCP
    INDEX 01 16:06:04
    TRACK 08 AUDIO
    TITLE "Сніжна королева"
    FLAGS DCP
    INDEX 01 20:15:64
    TRACK 09 AUDIO
    TITLE "Царівна-жаба"
    FLAGS DCP
    INDEX 01 23:56:67
    TRACK 10 AUDIO
    TITLE "Гогі Гоген"
    FLAGS DCP
    INDEX 01 28:29:61
    TRACK 11 AUDIO
    TITLE "Дуля"
    FLAGS DCP
    INDEX 01 34:49:06
    TRACK 12 AUDIO
    TITLE "П’яна свиня"
    FLAGS DCP
    INDEX 01 37:31:63
    TRACK 13 AUDIO
    TITLE "Дзеркало"
    FLAGS DCP
    INDEX 01 40:34:59
    TRACK 14 AUDIO
    TITLE "Кураре конкуренту"
    FLAGS DCP
    INDEX 01 43:38:05
    TRACK 15 AUDIO
    TITLE "Уругвай"
    FLAGS DCP
    INDEX 01 47:02:46
    TRACK 16 AUDIO
    TITLE "Криниченька"
    FLAGS DCP
    INDEX 01 50:38:20
    TRACK 17 AUDIO
    TITLE "Она"
    FLAGS DCP
    INDEX 01 53:14:04
    TRACK 18 AUDIO
    TITLE "Звёздный танец"
    FLAGS DCP
    INDEX 01 55:57:07
    TRACK 19 AUDIO
    TITLE "Магнитофон"
    FLAGS DCP
    INDEX 01 58:29:28
    TRACK 20 AUDIO
    TITLE "Падло"
    FLAGS DCP
    INDEX 01 60:38:33
    fooCDtect
    fooCDtect - foobar2000 + auCDtect, baralgin.

    auCDtect: CD records authenticity detector, version 0.8.2
    Copyright (c) 2004 Oleg Berngardt. All rights reserved.
    Copyright (c) 2004 Alexander Djourik. All rights reserved.

    mode: 0

    ===========================================
    Track: 01 - Audio-Video

    Processing file: [01 - Audio-Video.aucdtect]
    Detected average hi-boundary frequency: 2.064514e+004 Hz
    Detected average lo-boundary frequency: 1.333423e+004 Hz
    Detected average hi-cut frequency: 2.150020e+004 Hz
    Detected average lo-cut frequency: 1.932572e+004 Hz
    Maximum probablis boundary frequency: 2.149800e+004 Hz
    Coefficient of nonlinearity of a phase: 7.253846e-001
    First order smothness: 4.005634e-001
    Second order smothness: 7.464789e-001

    ------------------------------------------------------------
    This track looks like CDDA with probability 100%

    ===========================================
    Track: 02 - Крос

    Processing file: [02 - Крос.aucdtect]
    Detected average hi-boundary frequency: 2.035528e+004 Hz
    Detected average lo-boundary frequency: 1.273600e+004 Hz
    Detected average hi-cut frequency: 2.160802e+004 Hz
    Detected average lo-cut frequency: 1.729568e+004 Hz
    Maximum probablis boundary frequency: 2.153600e+004 Hz
    Coefficient of nonlinearity of a phase: 3.006740e-001
    First order smothness: 3.359375e-001
    Second order smothness: 7.343750e-001

    ------------------------------------------------------------
    This track looks like CDDA with probability 100%

    ===========================================
    Track: 03 - Аня, Йо!

    Processing file: [03 - Аня, Йо!.aucdtect]
    Detected average hi-boundary frequency: 2.027605e+004 Hz
    Detected average lo-boundary frequency: 1.310767e+004 Hz
    Detected average hi-cut frequency: 2.143262e+004 Hz
    Detected average lo-cut frequency: 1.542994e+004 Hz
    Maximum probablis boundary frequency: 2.156300e+004 Hz
    Coefficient of nonlinearity of a phase: 6.997958e-001
    First order smothness: 3.348243e-001
    Second order smothness: 6.939297e-001

    ------------------------------------------------------------
    This track looks like CDDA with probability 100%

    ===========================================
    Track: 04 - Будьмо!

    Processing file: [04 - Будьмо!.aucdtect]
    Detected average hi-boundary frequency: 2.025254e+004 Hz
    Detected average lo-boundary frequency: 1.260582e+004 Hz
    Detected average hi-cut frequency: 2.153689e+004 Hz
    Detected average lo-cut frequency: 1.708417e+004 Hz
    Maximum probablis boundary frequency: 2.153600e+004 Hz
    Coefficient of nonlinearity of a phase: 9.962888e-001
    First order smothness: 3.276231e-001
    Second order smothness: 6.862955e-001

    ------------------------------------------------------------
    This track looks like CDDA with probability 100%

    ===========================================
    Track: 05 - Епоха юних

    Processing file: [05 - Епоха юних.aucdtect]
    Detected average hi-boundary frequency: 2.033931e+004 Hz
    Detected average lo-boundary frequency: 1.274443e+004 Hz
    Detected average hi-cut frequency: 2.151938e+004 Hz
    Detected average lo-cut frequency: 1.751577e+004 Hz
    Maximum probablis boundary frequency: 2.189100e+004 Hz
    Coefficient of nonlinearity of a phase: 3.528804e-001
    First order smothness: 3.637339e-001
    Second order smothness: 6.979614e-001

    ------------------------------------------------------------
    This track looks like CDDA with probability 100%

    ===========================================
    Track: 06 - Лесные Робинзоны

    Processing file: [06 - Лесные Робинзоны.aucdtect]
    Detected average hi-boundary frequency: 2.036838e+004 Hz
    Detected average lo-boundary frequency: 1.294613e+004 Hz
    Detected average hi-cut frequency: 2.152577e+004 Hz
    Detected average lo-cut frequency: 1.724380e+004 Hz
    Maximum probablis boundary frequency: 2.156300e+004 Hz
    Coefficient of nonlinearity of a phase: 5.324748e-001
    First order smothness: 3.248441e-001
    Second order smothness: 7.225974e-001

    ------------------------------------------------------------
    This track looks like CDDA with probability 100%

    ===========================================
    Track: 07 - Забагато енергії

    Processing file: [07 - Забагато енергії.aucdtect]
    Detected average hi-boundary frequency: 2.026204e+004 Hz
    Detected average lo-boundary frequency: 1.286084e+004 Hz
    Detected average hi-cut frequency: 2.129656e+004 Hz
    Detected average lo-cut frequency: 1.380314e+004 Hz
    Maximum probablis boundary frequency: 2.156300e+004 Hz
    Coefficient of nonlinearity of a phase: 4.278139e-001
    First order smothness: 3.271375e-001
    Second order smothness: 6.988848e-001

    ------------------------------------------------------------
    This track looks like CDDA with probability 100%

    ===========================================
    Track: 08 - Сніжна королева

    Processing file: [08 - Сніжна королева.aucdtect]
    Detected average hi-boundary frequency: 2.033338e+004 Hz
    Detected average lo-boundary frequency: 1.295994e+004 Hz
    Detected average hi-cut frequency: 2.118734e+004 Hz
    Detected average lo-cut frequency: 1.453896e+004 Hz
    Maximum probablis boundary frequency: 2.189100e+004 Hz
    Coefficient of nonlinearity of a phase: 9.678770e-001
    First order smothness: 3.358554e-001
    Second order smothness: 7.277311e-001

    ------------------------------------------------------------
    This track looks like CDDA with probability 99%

    ===========================================
    Track: 09 - Царівна-жаба

    Processing file: [09 - Царівна-жаба.aucdtect]
    Detected average hi-boundary frequency: 2.038067e+004 Hz
    Detected average lo-boundary frequency: 1.325541e+004 Hz
    Detected average hi-cut frequency: 2.156365e+004 Hz
    Detected average lo-cut frequency: 1.766873e+004 Hz
    Maximum probablis boundary frequency: 2.155200e+004 Hz
    Coefficient of nonlinearity of a phase: 3.107010e-001
    First order smothness: 3.246002e-001
    Second order smothness: 7.431099e-001

    ------------------------------------------------------------
    This track looks like CDDA with probability 100%

    ===========================================
    Track: 10 - Гогі Гоген

    Processing file: [10 - Гогі Гоген.aucdtect]
    Detected average hi-boundary frequency: 2.023517e+004 Hz
    Detected average lo-boundary frequency: 1.338943e+004 Hz
    Detected average hi-cut frequency: 2.069248e+004 Hz
    Detected average lo-cut frequency: 1.015890e+004 Hz
    Maximum probablis boundary frequency: 2.189100e+004 Hz
    Coefficient of nonlinearity of a phase: 8.421965e-001
    First order smothness: 3.038688e-001
    Second order smothness: 6.204701e-001

    ------------------------------------------------------------
    This track looks like CDDA with probability 100%

    ===========================================
    Track: 11 - Дуля

    Processing file: [11 - Дуля.aucdtect]
    Detected average hi-boundary frequency: 2.038520e+004 Hz
    Detected average lo-boundary frequency: 1.290467e+004 Hz
    Detected average hi-cut frequency: 2.153904e+004 Hz
    Detected average lo-cut frequency: 1.662826e+004 Hz
    Maximum probablis boundary frequency: 2.156300e+004 Hz
    Coefficient of nonlinearity of a phase: 3.978349e-001
    First order smothness: 3.485454e-001
    Second order smothness: 7.056475e-001

    ------------------------------------------------------------
    This track looks like CDDA with probability 100%

    ===========================================
    Track: 12 - П’яна свиня

    Processing file: [12 - П’яна свиня.aucdtect]
    Detected average hi-boundary frequency: 2.032638e+004 Hz
    Detected average lo-boundary frequency: 1.285547e+004 Hz
    Detected average hi-cut frequency: 2.158760e+004 Hz
    Detected average lo-cut frequency: 1.775772e+004 Hz
    Maximum probablis boundary frequency: 2.156800e+004 Hz
    Coefficient of nonlinearity of a phase: 8.204572e-001
    First order smothness: 3.142132e-001
    Second order smothness: 7.005076e-001

    ------------------------------------------------------------
    This track looks like CDDA with probability 100%

    ===========================================
    Track: 13 - Дзеркало

    Processing file: [13 - Дзеркало.aucdtect]
    Detected average hi-boundary frequency: 2.032638e+004 Hz
    Detected average lo-boundary frequency: 1.298494e+004 Hz
    Detected average hi-cut frequency: 2.148208e+004 Hz
    Detected average lo-cut frequency: 1.533019e+004 Hz
    Maximum probablis boundary frequency: 2.152500e+004 Hz
    Coefficient of nonlinearity of a phase: 6.643154e-001
    First order smothness: 3.237082e-001
    Second order smothness: 6.585613e-001

    ------------------------------------------------------------
    This track looks like CDDA with probability 100%

    ===========================================
    Track: 14 - Кураре конкуренту

    Processing file: [14 - Кураре конкуренту.aucdtect]
    Detected average hi-boundary frequency: 2.038438e+004 Hz
    Detected average lo-boundary frequency: 1.320485e+004 Hz
    Detected average hi-cut frequency: 2.147091e+004 Hz
    Detected average lo-cut frequency: 1.738566e+004 Hz
    Maximum probablis boundary frequency: 2.153600e+004 Hz
    Coefficient of nonlinearity of a phase: 3.072535e-001
    First order smothness: 3.413527e-001
    Second order smothness: 6.990468e-001

    ------------------------------------------------------------
    This track looks like CDDA with probability 100%

    ===========================================
    Track: 15 - Уругвай

    Processing file: [15 - Уругвай.aucdtect]
    Detected average hi-boundary frequency: 2.036671e+004 Hz
    Detected average lo-boundary frequency: 1.305905e+004 Hz
    Detected average hi-cut frequency: 2.157707e+004 Hz
    Detected average lo-cut frequency: 1.735480e+004 Hz
    Maximum probablis boundary frequency: 2.150400e+004 Hz
    Coefficient of nonlinearity of a phase: 4.265449e-001
    First order smothness: 3.479759e-001
    Second order smothness: 7.381568e-001

    ------------------------------------------------------------
    This track looks like CDDA with probability 100%

    ===========================================
    Track: 16 - Криниченька

    Processing file: [16 - Криниченька.aucdtect]
    Detected average hi-boundary frequency: 2.044165e+004 Hz
    Detected average lo-boundary frequency: 1.279866e+004 Hz
    Detected average hi-cut frequency: 2.162640e+004 Hz
    Detected average lo-cut frequency: 1.833434e+004 Hz
    Maximum probablis boundary frequency: 2.152500e+004 Hz
    Coefficient of nonlinearity of a phase: 8.449773e-001
    First order smothness: 2.973778e-001
    Second order smothness: 7.634088e-001

    ------------------------------------------------------------
    This track looks like CDDA with probability 100%

    ===========================================
    Track: 17 - Она

    Processing file: [17 - Она.aucdtect]
    Detected average hi-boundary frequency: 2.039242e+004 Hz
    Detected average lo-boundary frequency: 1.314927e+004 Hz
    Detected average hi-cut frequency: 2.130657e+004 Hz
    Detected average lo-cut frequency: 1.607094e+004 Hz
    Maximum probablis boundary frequency: 2.162200e+004 Hz
    Coefficient of nonlinearity of a phase: 5.342946e-001
    First order smothness: 3.542141e-001
    Second order smothness: 6.440774e-001

    ------------------------------------------------------------
    This track looks like CDDA with probability 99%

    ===========================================
    Track: 18 - Звёздный танец

    Processing file: [18 - Звёздный танец.aucdtect]
    Detected average hi-boundary frequency: 2.046484e+004 Hz
    Detected average lo-boundary frequency: 1.351129e+004 Hz
    Detected average hi-cut frequency: 2.157196e+004 Hz
    Detected average lo-cut frequency: 1.790960e+004 Hz
    Maximum probablis boundary frequency: 2.156800e+004 Hz
    Coefficient of nonlinearity of a phase: 7.579813e-001
    First order smothness: 3.353659e-001
    Second order smothness: 7.731707e-001

    ------------------------------------------------------------
    This track looks like CDDA with probability 99%

    ===========================================
    Track: 19 - Магнитофон

    Processing file: [19 - Магнитофон.aucdtect]
    Detected average hi-boundary frequency: 2.052046e+004 Hz
    Detected average lo-boundary frequency: 1.297996e+004 Hz
    Detected average hi-cut frequency: 2.165317e+004 Hz
    Detected average lo-cut frequency: 1.871049e+004 Hz
    Maximum probablis boundary frequency: 2.155200e+004 Hz
    Coefficient of nonlinearity of a phase: 1.075894e+000
    First order smothness: 3.352518e-001
    Second order smothness: 7.769784e-001

    ------------------------------------------------------------
    This track looks like CDDA with probability 100%

    ===========================================
    Track: 20 - Падло

    Processing file: [20 - Падло.aucdtect]
    Detected average hi-boundary frequency: 2.018207e+004 Hz
    Detected average lo-boundary frequency: 1.266511e+004 Hz
    Detected average hi-cut frequency: 2.145422e+004 Hz
    Detected average lo-cut frequency: 1.250207e+004 Hz
    Maximum probablis boundary frequency: 2.189100e+004 Hz
    Coefficient of nonlinearity of a phase: 1.100374e+000
    First order smothness: 3.413137e-001
    Second order smothness: 5.064457e-001

    ------------------------------------------------------------
    This track looks like CDDA with probability 99%

    ===========================================
    2006 - Паразіта кусок

    Пісні:
      01 - Паразіта кусок
      02 - Риголєтто
      03 - Емінема нема
      04 - Міліція!
      05 - Дівчача мучача
      06 - Каролина бугаз
      07 - Золоте теля
      08 - Бабло
      09 - Гімнастика
      10 - Блюдо дня
      11 - Гандзя
      12 - Підозріла музика
      13 - Я лєтєл
      14 - Бонус

    Тривалість: 00:50:01
    Мова: українська (1-(13)-14), кацапська (13)
    Бітрейт: 826 кб/с
    log
    EAC extraction logfile from 19. February 2007, 20:10 for CD
    Паразіта Кусок / Борщ

    Used drive : PIONEER DVD-RW DVR-111D Adapter: 0 ID: 0
    Read mode : Secure with NO C2, accurate stream, disable cache
    Combined read/write offset correction : 0
    Overread into Lead-In and Lead-Out : No

    Used output format : Internal WAV Routines
    44.100 Hz; 16 Bit; Stereo

    Other options :
    Fill up missing offset samples with silence : Yes
    Delete leading and trailing silent blocks : No
    Native Win32 interface for Win NT & 2000

    Range status and errors
    Selected range
    Filename D:\release\Паразіта Кусок - Борщ.wav

    Peak level 97.7 %
    Range quality 100.0 %
    CRC 45F8372B
    Copy OK

    No errors occured

    End of status report
    cue
    REM GENRE Punk Rock
    REM DATE 2006
    REM COMMENT ExactAudioCopy v0.95b4
    PERFORMER "Борщ"
    TITLE "Паразіта кусок"
    FILE "Borshch.Parazita_Kusok.2006.EAC.APE.CUE.LOG.Silkmann.(Netlab).ape" WAVE
    TRACK 01 AUDIO
    TITLE "Паразіта кусок"
    FLAGS DCP
    INDEX 01 00:00:00
    TRACK 02 AUDIO
    TITLE "Риголєтто"
    FLAGS DCP
    INDEX 01 02:40:45
    TRACK 03 AUDIO
    TITLE "Емінема нема"
    FLAGS DCP
    INDEX 01 05:44:35
    TRACK 04 AUDIO
    TITLE "Міліція!"
    FLAGS DCP
    INDEX 01 09:37:49
    TRACK 05 AUDIO
    TITLE "Дівчача мучача"
    FLAGS DCP
    INDEX 01 13:00:24
    TRACK 06 AUDIO
    TITLE "Каролина бугаз"
    FLAGS DCP
    INDEX 01 16:01:40
    TRACK 07 AUDIO
    TITLE "Золоте теля"
    FLAGS DCP
    INDEX 01 19:35:45
    TRACK 08 AUDIO
    TITLE "Бабло"
    FLAGS DCP
    INDEX 01 21:52:20
    TRACK 09 AUDIO
    TITLE "Гімнастика"
    FLAGS DCP
    INDEX 01 24:02:68
    TRACK 10 AUDIO
    TITLE "Блюдо дня"
    FLAGS DCP
    INDEX 01 26:43:01
    TRACK 11 AUDIO
    TITLE "Гандзя"
    FLAGS DCP
    INDEX 01 29:14:56
    TRACK 12 AUDIO
    TITLE "Підозріла музика"
    FLAGS DCP
    INDEX 01 31:39:68
    TRACK 13 AUDIO
    TITLE "Я лєтєл"
    FLAGS DCP
    INDEX 01 34:03:59
    TRACK 14 AUDIO
    TITLE "Бонус"
    FLAGS DCP
    INDEX 01 36:10:05
    fooCDtect
    fooCDtect - foobar2000 + auCDtect, baralgin.

    auCDtect: CD records authenticity detector, version 0.8.2
    Copyright (c) 2004 Oleg Berngardt. All rights reserved.
    Copyright (c) 2004 Alexander Djourik. All rights reserved.

    mode: 0

    ===========================================
    Track: 01 - Паразіта кусок

    Processing file: [01 - Паразіта кусок.aucdtect]
    Detected average hi-boundary frequency: 2.027483e+004 Hz
    Detected average lo-boundary frequency: 1.253345e+004 Hz
    Detected average hi-cut frequency: 2.132051e+004 Hz
    Detected average lo-cut frequency: 1.051496e+004 Hz
    Maximum probablis boundary frequency: 2.189100e+004 Hz
    Coefficient of nonlinearity of a phase: 7.544847e-001
    First order smothness: 3.508671e-001
    Second order smothness: 3.716763e-001

    ------------------------------------------------------------
    This track looks like CDDA with probability 100%

    ===========================================
    Track: 02 - Риголєтто

    Processing file: [02 - Риголєтто.aucdtect]
    Detected average hi-boundary frequency: 2.030511e+004 Hz
    Detected average lo-boundary frequency: 1.288651e+004 Hz
    Detected average hi-cut frequency: 2.111339e+004 Hz
    Detected average lo-cut frequency: 1.017970e+004 Hz
    Maximum probablis boundary frequency: 2.189100e+004 Hz
    Coefficient of nonlinearity of a phase: 3.657929e-001
    First order smothness: 3.696970e-001
    Second order smothness: 2.136364e-001

    ------------------------------------------------------------
    This track looks like CDDA with probability 100%

    ===========================================
    Track: 03 - Емінема нема

    Processing file: [03 - Емінема нема.aucdtect]
    Detected average hi-boundary frequency: 2.011927e+004 Hz
    Detected average lo-boundary frequency: 1.288234e+004 Hz
    Detected average hi-cut frequency: 2.171127e+004 Hz
    Detected average lo-cut frequency: 1.238503e+004 Hz
    Maximum probablis boundary frequency: 2.189100e+004 Hz
    Coefficient of nonlinearity of a phase: 2.990454e-001
    First order smothness: 3.438247e-001
    Second order smothness: 4.651533e-001

    ------------------------------------------------------------
    This track looks like CDDA with probability 99%

    ===========================================
    Track: 04 - Міліція!

    Processing file: [04 - Міліція!.aucdtect]
    Detected average hi-boundary frequency: 2.007633e+004 Hz
    Detected average lo-boundary frequency: 1.261213e+004 Hz
    Detected average hi-cut frequency: 2.166159e+004 Hz
    Detected average lo-cut frequency: 1.276313e+004 Hz
    Maximum probablis boundary frequency: 2.189100e+004 Hz
    Coefficient of nonlinearity of a phase: 7.898566e-002
    First order smothness: 3.550160e-001
    Second order smothness: 4.480073e-001

    ------------------------------------------------------------
    This track looks like CDDA with probability 100%

    ===========================================
    Track: 05 - Дівчача мучача

    Processing file: [05 - Дівчача мучача.aucdtect]
    Detected average hi-boundary frequency: 2.012543e+004 Hz
    Detected average lo-boundary frequency: 1.242536e+004 Hz
    Detected average hi-cut frequency: 2.171187e+004 Hz
    Detected average lo-cut frequency: 1.357974e+004 Hz
    Maximum probablis boundary frequency: 2.189100e+004 Hz
    Coefficient of nonlinearity of a phase: 5.461924e-001
    First order smothness: 3.391393e-001
    Second order smothness: 4.103484e-001

    ------------------------------------------------------------
    This track looks like CDDA with probability 100%

    ===========================================
    Track: 06 - Каролина бугаз

    Processing file: [06 - Каролина бугаз.aucdtect]
    Detected average hi-boundary frequency: 2.004815e+004 Hz
    Detected average lo-boundary frequency: 1.252307e+004 Hz
    Detected average hi-cut frequency: 2.164781e+004 Hz
    Detected average lo-cut frequency: 1.141500e+004 Hz
    Maximum probablis boundary frequency: 2.189100e+004 Hz
    Coefficient of nonlinearity of a phase: 2.698052e-001
    First order smothness: 3.600868e-001
    Second order smothness: 4.134490e-001

    ------------------------------------------------------------
    This track looks like CDDA with probability 100%

    ===========================================
    Track: 07 - Золоте теля

    Processing file: [07 - Золоте теля.aucdtect]
    Detected average hi-boundary frequency: 2.021720e+004 Hz
    Detected average lo-boundary frequency: 1.327606e+004 Hz
    Detected average hi-cut frequency: 2.110307e+004 Hz
    Detected average lo-cut frequency: 5.432341e+003 Hz
    Maximum probablis boundary frequency: 2.189100e+004 Hz
    Coefficient of nonlinearity of a phase: 5.483109e-001
    First order smothness: 3.763587e-001
    Second order smothness: 4.422554e-001

    ------------------------------------------------------------
    This track looks like CDDA with probability 99%

    ===========================================
    Track: 08 - Бабло

    Processing file: [08 - Бабло.aucdtect]
    Detected average hi-boundary frequency: 2.010153e+004 Hz
    Detected average lo-boundary frequency: 1.229836e+004 Hz
    Detected average hi-cut frequency: 2.161388e+004 Hz
    Detected average lo-cut frequency: 1.337700e+004 Hz
    Maximum probablis boundary frequency: 2.189100e+004 Hz
    Coefficient of nonlinearity of a phase: 4.977243e-001
    First order smothness: 3.958778e-001
    Second order smothness: 4.804549e-001

    ------------------------------------------------------------
    This track looks like CDDA with probability 99%

    ===========================================
    Track: 09 - Гімнастика

    Processing file: [09 - Гімнастика.aucdtect]
    Detected average hi-boundary frequency: 2.012904e+004 Hz
    Detected average lo-boundary frequency: 1.306974e+004 Hz
    Detected average hi-cut frequency: 2.162908e+004 Hz
    Detected average lo-cut frequency: 1.388978e+004 Hz
    Maximum probablis boundary frequency: 2.189100e+004 Hz
    Coefficient of nonlinearity of a phase: 8.282035e-002
    First order smothness: 3.352668e-001
    Second order smothness: 4.245940e-001

    ------------------------------------------------------------
    This track looks like CDDA with probability 100%

    ===========================================
    Track: 10 - Блюдо дня

    Processing file: [10 - Блюдо дня.aucdtect]
    Detected average hi-boundary frequency: 2.025880e+004 Hz
    Detected average lo-boundary frequency: 1.221301e+004 Hz
    Detected average hi-cut frequency: 2.135151e+004 Hz
    Detected average lo-cut frequency: 1.207526e+004 Hz
    Maximum probablis boundary frequency: 2.189100e+004 Hz
    Coefficient of nonlinearity of a phase: 8.838549e-001
    First order smothness: 3.378213e-001
    Second order smothness: 3.506732e-001

    ------------------------------------------------------------
    This track looks like CDDA with probability 100%

    ===========================================
    Track: 11 - Гандзя

    Processing file: [11 - Гандзя.aucdtect]
    Detected average hi-boundary frequency: 2.024024e+004 Hz
    Detected average lo-boundary frequency: 1.283513e+004 Hz
    Detected average hi-cut frequency: 2.162187e+004 Hz
    Detected average lo-cut frequency: 1.255536e+004 Hz
    Maximum probablis boundary frequency: 2.189100e+004 Hz
    Coefficient of nonlinearity of a phase: 3.080721e-001
    First order smothness: 3.550864e-001
    Second order smothness: 4.030710e-001

    ------------------------------------------------------------
    This track looks like CDDA with probability 99%

    ===========================================
    Track: 12 - Підозріла музика

    Processing file: [12 - Підозріла музика.aucdtect]
    Detected average hi-boundary frequency: 2.004061e+004 Hz
    Detected average lo-boundary frequency: 1.203842e+004 Hz
    Detected average hi-cut frequency: 2.165447e+004 Hz
    Detected average lo-cut frequency: 1.357575e+004 Hz
    Maximum probablis boundary frequency: 2.189100e+004 Hz
    Coefficient of nonlinearity of a phase: 4.727936e-001
    First order smothness: 3.212903e-001
    Second order smothness: 4.754839e-001

    ------------------------------------------------------------
    This track looks like CDDA with probability 100%

    ===========================================
    Track: 13 - Я лєтєл

    Processing file: [13 - Я лєтєл.aucdtect]
    Detected average hi-boundary frequency: 2.009508e+004 Hz
    Detected average lo-boundary frequency: 1.289060e+004 Hz
    Detected average hi-cut frequency: 2.170416e+004 Hz
    Detected average lo-cut frequency: 1.280737e+004 Hz
    Maximum probablis boundary frequency: 2.189100e+004 Hz
    Coefficient of nonlinearity of a phase: 3.529085e-001
    First order smothness: 3.389706e-001
    Second order smothness: 4.477941e-001

    ------------------------------------------------------------
    This track looks like CDDA with probability 100%

    ===========================================
    Track: 14 - Бонус

    Processing file: [14 - Бонус.aucdtect]
    Detected average hi-boundary frequency: 2.029701e+004 Hz
    Detected average lo-boundary frequency: 1.291970e+004 Hz
    Detected average hi-cut frequency: 2.068604e+004 Hz
    Detected average lo-cut frequency: 7.893963e+003 Hz
    Maximum probablis boundary frequency: 2.189100e+004 Hz
    Coefficient of nonlinearity of a phase: 3.208965e-001
    First order smothness: 4.426065e-001
    Second order smothness: 5.938303e-001

    ------------------------------------------------------------
    This track looks like CDDA with probability 100%

    ===========================================
    2006 - Far Away (Split (Борщ vs DVS)

    Пісні:
      01 - Far Far Away (performed by Борщ & DVS)
      02 - Бабло (Борщ, from the upcoming album 'Паразіта кусок')
      03 - Емінема нема (Борщ, from the upcoming album 'Паразіта кусок')
      04 - Bring Me Down (DVS, from the upcoming album 'Big Fish')
      05 - Big Fish (DVS, from the upcoming album 'Big Fish')
      06 - A Reason To Hate You (DVS, from the upcoming album 'Big Fish')
      07 - I Can't Take It (DVS, from the upcoming album 'Big Fish')
      08 - Just Crazy (DVS, from the upcoming album 'Just Crazy')
      09 - Born To Be Wild (performed by DVS)
      10 - Mustapha Ibrahim (performed by Борщ)
      11 - Епоха юних (Борщ, consider it as a remix)
      12 - Audio/Video (Борщ, consider it as a remix)
      13 - Падло (Борщ, consider it as a remix)

    Тривалість: 00:44:10
    Мова: українська (1, 2, 3, 11), англійська (1, 4 - 10, 12), кацапська (13)
    Бітрейт: 1007 кб/с
    log
    Exact Audio Copy V0.99 prebeta 4 from 23. January 2008

    Отчёт EAC об извлечении, выполненном 24. апреля 2009, 20:21

    Борщ vs DVS / Far Away

    Дисковод: Optiarc DVD RW AD-5170A Adapter: 0 ID: 0

    Режим чтения : Достоверность
    Использование точного потока : Да
    Отключение кэша аудио : Да
    Использование указателей C2 : Нет

    Коррекция смещения при чтении : 48
    Способность читать области Lead-in и Lead-out : Нет
    Заполнение пропущенных сэмплов тишиной : Да
    Удаление блоков с тишиной в начале и конце : Нет
    При вычислениях CRC использовались нулевые сэмплы : Да
    Интерфейс : Установленный внешний ASPI-интерфейс

    Выходной формат : Внутренние WAV-операции
    Формат сэмплов : 44.100 Гц; 16 бит; стерео

    TOC извлечённого CD

    Трек | Старт | Длительность | Начальный сектор | Конечный сектор
    ---------------------------------------------------------------------
    1 | 0:00.00 | 2:58.57 | 0 | 13406
    2 | 2:58.57 | 2:37.02 | 13407 | 25183
    3 | 5:35.59 | 4:05.18 | 25184 | 43576
    4 | 9:41.02 | 3:58.72 | 43577 | 61498
    5 | 13:39.74 | 3:32.18 | 61499 | 77416
    6 | 17:12.17 | 4:05.58 | 77417 | 95849
    7 | 21:18.00 | 3:12.31 | 95850 | 110280
    8 | 24:30.31 | 4:02.30 | 110281 | 128460
    9 | 28:32.61 | 4:28.56 | 128461 | 148616
    10 | 33:01.42 | 2:52.21 | 148617 | 161537
    11 | 35:53.63 | 2:34.00 | 161538 | 173087
    12 | 38:27.63 | 3:02.52 | 173088 | 186789
    13 | 41:30.40 | 2:39.36 | 186790 | 198750

    Характеристики диапазона извлечения и сообщения об ошибках

    Выбранный диапазон

    Имя файла G:\Lossless\Борщ vs DVS - Far Away.wav

    Пиковый уровень 100.0 %
    Качество диапазона 100.0 %
    CRC копии 5C3A7CF1
    Копирование... OK

    Ошибок не произошло

    Конец отчёта
    cue
    REM GENRE Rock
    REM DATE 2006
    REM COMMENT ExactAudioCopy v0.99pb4
    PERFORMER "Борщ vs DVS"
    TITLE "Far Away"
    FILE "Борщ vs DVS - Far Away.ape" WAVE
    TRACK 01 AUDIO
    TITLE "Far Far Away (performed by Борщ & DVS)"
    FLAGS DCP
    INDEX 01 00:00:00
    TRACK 02 AUDIO
    TITLE "Бабло (Борщ, from the upcoming album 'Паразіта кусок')"
    FLAGS DCP
    INDEX 01 02:58:57
    TRACK 03 AUDIO
    TITLE "Емінема нема (Борщ, from the upcoming album 'Паразіта кусок')"
    FLAGS DCP
    INDEX 01 05:35:59
    TRACK 04 AUDIO
    TITLE "Bring Me Down (DVS, from the upcoming album 'Big Fish')"
    FLAGS DCP
    INDEX 01 09:41:02
    TRACK 05 AUDIO
    TITLE "Big Fish (DVS, from the upcoming album 'Big Fish')"
    FLAGS DCP
    INDEX 01 13:39:74
    TRACK 06 AUDIO
    TITLE "A Reason To Hate You (DVS, from the upcoming album 'Big Fish')"
    FLAGS DCP
    INDEX 00 17:12:15
    INDEX 01 17:12:17
    TRACK 07 AUDIO
    TITLE "I Can't Take It (DVS, from the upcoming album 'Big Fish')"
    FLAGS DCP
    INDEX 01 21:18:00
    TRACK 08 AUDIO
    TITLE "Just Crazy (DVS, from the upcoming album 'Just Crazy')"
    FLAGS DCP
    INDEX 01 24:30:31
    TRACK 09 AUDIO
    TITLE "Born To Be Wild (performed by DVS)"
    FLAGS DCP
    INDEX 01 28:32:61
    TRACK 10 AUDIO
    TITLE "Mustapha Ibrahim (performed by Борщ)"
    FLAGS DCP
    INDEX 01 33:01:42
    TRACK 11 AUDIO
    TITLE "Епоха юних (Борщ, consider it as a remix)"
    FLAGS DCP
    INDEX 01 35:53:63
    TRACK 12 AUDIO
    TITLE "Audio/Video (Борщ, consider it as a remix)"
    FLAGS DCP
    INDEX 01 38:27:63
    TRACK 13 AUDIO
    TITLE "Падло (Борщ, consider it as a remix)"
    FLAGS DCP
    INDEX 01 41:30:40
    fooCDtect
    fooCDtect - foobar2000 + auCDtect, baralgin.

    auCDtect: CD records authenticity detector, version 0.8.2
    Copyright (c) 2004 Oleg Berngardt. All rights reserved.
    Copyright (c) 2004 Alexander Djourik. All rights reserved.

    mode: 0

    ===========================================
    Track: 01 - Far Far Away (performed by Борщ & DVS)

    Processing file: [01 - Far Far Away (performed by Борщ & DVS).aucdtect]
    Detected average hi-boundary frequency: 2.020186e+004 Hz
    Detected average lo-boundary frequency: 1.276020e+004 Hz
    Detected average hi-cut frequency: 2.146784e+004 Hz
    Detected average lo-cut frequency: 1.161812e+004 Hz
    Maximum probablis boundary frequency: 2.189100e+004 Hz
    Coefficient of nonlinearity of a phase: 1.662808e-001
    First order smothness: 3.101299e-001
    Second order smothness: 5.906494e-001

    ------------------------------------------------------------
    This track looks like CDDA with probability 100%

    ===========================================
    Track: 02 - Бабло (Борщ, from the upcoming album 'Паразіта кусок')

    Processing file: [02 - Бабло (Борщ, from the upcoming album 'Паразіта кусок').aucdtect]
    Detected average hi-boundary frequency: 2.039574e+004 Hz
    Detected average lo-boundary frequency: 1.199631e+004 Hz
    Detected average hi-cut frequency: 2.122718e+004 Hz
    Detected average lo-cut frequency: 1.226202e+004 Hz
    Maximum probablis boundary frequency: 2.189100e+004 Hz
    Coefficient of nonlinearity of a phase: 5.459619e-001
    First order smothness: 4.269663e-001
    Second order smothness: 4.429332e-001

    ------------------------------------------------------------
    This track looks like CDDA with probability 100%

    ===========================================
    Track: 03 - Емінема нема (Борщ, from the upcoming album 'Паразіта кусок')

    Processing file: [03 - Емінема нема (Борщ, from the upcoming album 'Паразіта кусок').aucdtect]
    Detected average hi-boundary frequency: 2.016966e+004 Hz
    Detected average lo-boundary frequency: 1.296986e+004 Hz
    Detected average hi-cut frequency: 2.160938e+004 Hz
    Detected average lo-cut frequency: 1.140832e+004 Hz
    Maximum probablis boundary frequency: 2.189100e+004 Hz
    Coefficient of nonlinearity of a phase: 2.897592e-001
    First order smothness: 3.680424e-001
    Second order smothness: 4.237031e-001

    ------------------------------------------------------------
    This track looks like CDDA with probability 100%

    ===========================================
    Track: 04 - Bring Me Down (DVS, from the upcoming album 'Big Fish')

    Processing file: [04 - Bring Me Down (DVS, from the upcoming album 'Big Fish').aucdtect]
    Detected average hi-boundary frequency: 2.016603e+004 Hz
    Detected average lo-boundary frequency: 1.309328e+004 Hz
    Detected average hi-cut frequency: 2.186092e+004 Hz
    Detected average lo-cut frequency: 1.493332e+004 Hz
    Maximum probablis boundary frequency: 2.189100e+004 Hz
    Coefficient of nonlinearity of a phase: 9.111412e-002
    First order smothness: 3.264672e-001
    Second order smothness: 6.272833e-001

    ------------------------------------------------------------
    This track looks like CDDA with probability 100%

    ===========================================
    Track: 05 - Big Fish (DVS, from the upcoming album 'Big Fish')

    Processing file: [05 - Big Fish (DVS, from the upcoming album 'Big Fish').aucdtect]
    Detected average hi-boundary frequency: 2.026647e+004 Hz
    Detected average lo-boundary frequency: 1.320154e+004 Hz
    Detected average hi-cut frequency: 2.183556e+004 Hz
    Detected average lo-cut frequency: 1.565361e+004 Hz
    Maximum probablis boundary frequency: 2.166500e+004 Hz
    Coefficient of nonlinearity of a phase: 7.959241e-002
    First order smothness: 3.193351e-001
    Second order smothness: 6.797900e-001

    ------------------------------------------------------------
    This track looks like CDDA with probability 100%

    ===========================================
    Track: 06 - A Reason To Hate You (DVS, from the upcoming album 'Big Fish')

    Processing file: [06 - A Reason To Hate You (DVS, from the upcoming album 'Big Fish').aucdtect]
    Detected average hi-boundary frequency: 2.023322e+004 Hz
    Detected average lo-boundary frequency: 1.320570e+004 Hz
    Detected average hi-cut frequency: 2.186713e+004 Hz
    Detected average lo-cut frequency: 1.488358e+004 Hz
    Maximum probablis boundary frequency: 2.189100e+004 Hz
    Coefficient of nonlinearity of a phase: 2.575969e-001
    First order smothness: 3.256517e-001
    Second order smothness: 6.509256e-001

    ------------------------------------------------------------
    This track looks like CDDA with probability 100%

    ===========================================
    Track: 07 - I Can't Take It (DVS, from the upcoming album 'Big Fish')

    Processing file: [07 - I Can't Take It (DVS, from the upcoming album 'Big Fish').aucdtect]
    Detected average hi-boundary frequency: 2.040349e+004 Hz
    Detected average lo-boundary frequency: 1.355305e+004 Hz
    Detected average hi-cut frequency: 2.174219e+004 Hz
    Detected average lo-cut frequency: 1.628346e+004 Hz
    Maximum probablis boundary frequency: 2.189100e+004 Hz
    Coefficient of nonlinearity of a phase: 1.807664e-001
    First order smothness: 3.117761e-001
    Second order smothness: 7.070463e-001

    ------------------------------------------------------------
    This track looks like CDDA with probability 100%

    ===========================================
    Track: 08 - Just Crazy (DVS, from the upcoming album 'Just Crazy')

    Processing file: [08 - Just Crazy (DVS, from the upcoming album 'Just Crazy').aucdtect]
    Detected average hi-boundary frequency: 2.031418e+004 Hz
    Detected average lo-boundary frequency: 1.255905e+004 Hz
    Detected average hi-cut frequency: 2.145727e+004 Hz
    Detected average lo-cut frequency: 1.766625e+004 Hz
    Maximum probablis boundary frequency: 2.151400e+004 Hz
    Coefficient of nonlinearity of a phase: 4.608910e-001
    First order smothness: 3.835249e-001
    Second order smothness: 5.704981e-001

    ------------------------------------------------------------

    This track looks like CDDA with probability 100%

    ===========================================
    Track: 09 - Born To Be Wild (performed by DVS)

    Processing file: [09 - Born To Be Wild (performed by DVS).aucdtect]
    Detected average hi-boundary frequency: 2.010650e+004 Hz
    Detected average lo-boundary frequency: 1.315932e+004 Hz
    Detected average hi-cut frequency: 2.176478e+004 Hz
    Detected average lo-cut frequency: 1.350756e+004 Hz
    Maximum probablis boundary frequency: 2.189100e+004 Hz
    Coefficient of nonlinearity of a phase: 5.405584e-002
    First order smothness: 3.337941e-001
    Second order smothness: 5.621977e-001

    ------------------------------------------------------------
    This track looks like CDDA with probability 100%

    ===========================================
    Track: 10 - Mustapha Ibrahim (performed by Борщ)

    Processing file: [10 - Mustapha Ibrahim (performed by Борщ).aucdtect]
    Detected average hi-boundary frequency: 2.027038e+004 Hz
    Detected average lo-boundary frequency: 1.337951e+004 Hz
    Detected average hi-cut frequency: 2.177639e+004 Hz
    Detected average lo-cut frequency: 1.417000e+004 Hz
    Maximum probablis boundary frequency: 2.189100e+004 Hz
    Coefficient of nonlinearity of a phase: 2.977924e-001
    First order smothness: 3.714286e-001
    Second order smothness: 6.010782e-001

    ------------------------------------------------------------
    This track looks like CDDA with probability 100%

    ===========================================
    Track: 11 - Епоха юних (Борщ, consider it as a remix)

    Processing file: [11 - Епоха юних (Борщ, consider it as a remix).aucdtect]
    Detected average hi-boundary frequency: 2.015300e+004 Hz
    Detected average lo-boundary frequency: 1.299367e+004 Hz
    Detected average hi-cut frequency: 2.192649e+004 Hz
    Detected average lo-cut frequency: 1.350289e+004 Hz
    Maximum probablis boundary frequency: 2.189100e+004 Hz
    Coefficient of nonlinearity of a phase: 1.380309e-001
    First order smothness: 4.074744e-001
    Second order smothness: 4.930681e-001

    ------------------------------------------------------------
    This track looks like CDDA with probability 99%

    ===========================================
    Track: 12 - Audio-Video (Борщ, consider it as a remix)

    Processing file: [12 - Audio-Video (Борщ, consider it as a remix).aucdtect]
    Detected average hi-boundary frequency: 2.081279e+004 Hz
    Detected average lo-boundary frequency: 1.415297e+004 Hz
    Detected average hi-cut frequency: 2.182163e+004 Hz
    Detected average lo-cut frequency: 1.892212e+004 Hz
    Maximum probablis boundary frequency: 2.189100e+004 Hz
    Coefficient of nonlinearity of a phase: 1.719228e-001
    First order smothness: 4.570412e-001
    Second order smothness: 7.214032e-001

    ------------------------------------------------------------
    This track looks like CDDA with probability 99%

    ===========================================
    Track: 13 - Падло (Борщ, consider it as a remix)

    Processing file: [13 - Падло (Борщ, consider it as a remix).aucdtect]
    Detected average hi-boundary frequency: 2.000502e+004 Hz
    Detected average lo-boundary frequency: 1.283603e+004 Hz
    Detected average hi-cut frequency: 2.173309e+004 Hz
    Detected average lo-cut frequency: 1.268292e+004 Hz
    Maximum probablis boundary frequency: 2.173500e+004 Hz
    Coefficient of nonlinearity of a phase: 1.954270e-001
    First order smothness: 3.882421e-001
    Second order smothness: 6.187427e-001

    ------------------------------------------------------------
    This track looks like CDDA with probability 100%

    ===========================================

Тривалість: 02:37:21
Мова: українська, англійська, кацапська
Аудіо-кодек: APE
Бітрейт: 826-1013 кб/с
Джерело: інтернет
Додаткова інформація:
Гурт Борщ створено у 2002 році за ініціативою Олександра Піпи та Юрія Здоренко (автор деяких пісень гурту Воплі Відоплясова). В складі гурту до кінця 2004 року був також Вітольд Корженко, який залишався учасником гурту "Танок На Майдані Конго". Згодом Корженко залишив гурт, так як не міг брати участь у концертах обох гуртів одночасно. Після чого його місце посів Зюбін Вадим.


Якщо Ви справді бажаєте підтримати українське - після прослуховування, якщо музика вам сподобалась,
придбайте ліцензійний диск.
Підтримаймо вітчизняних виконавців!


Золотий реліз (завантажене не впливає на рейтинг)
 Трекер:    Зареєстрований   

Завантажити / скачати українську музику



відео для новачків



 Зареєстрований:   2018-05-13 00:02
 Розмір:   1.09 GB 
 Оцінка музики:   10/10 (Голосів: 3)
   
Anonymous 







2018-05-13 00:13  
Anonymous 







2018-05-13 13:12  
максі-сингл [borshch] відсутній в роздачі
прохання поділитись, якщо хто має
covers









P.A.N. 
Новенький


З нами з: 25.03.10
Востаннє: 10.08.18
Повідомлень: 13

2018-08-09 23:19  
Ваш часовий пояс: GMT + 2 Години

Нова тема   Відповісти