Формула 1. Сезон 2018. Етап 5. Гран-Прі Іспанії. Кваліфікація (12.05.2018) 720p Ukr/Dan

Нові коментарі

Нова тема   Відповісти
Автор Повідомлення
sergiyko.5 
VIP


З нами з: 25.02.16
Востаннє: 21.10.20
Повідомлень: 3588

2018-05-12 20:31  
Формула 1. Сезон 2018. Етап 5. Гран-Прі Іспанії. Кваліфікація (12.05.2018) 720p Ukr/DAN


Формула 1. Сезон 2018. Етап 5. Гран-Прі Іспанії. Кваліфікація (12.05.2018) 720p Ukr/Dan

Жанр: Перегони Формули 1
Країна: Іспанія
Телеканал: Перший автомобільний
Коментатор: Максим Подзігун

Опис:
Кваліфікація п'ятого сезону Гран-Прі Іспанії 2018 року.


Тривалість: 01:04:12
Якість:

Відео: кодек: розмір кадру: 1280 х 720 бітрейт: 5990 кб/с
Аудіо # 1: мова: українська кодек: 2.0 бітрейт: 192 кб/с
Аудіо # 2: мова: данська кодек: 5.1 бітрейт: 384 кб/с

Дод. інформація: відео має вирізану рекламу, тому час кінцевого відеофайла коротший за час прямої трансляції.
Про файл:
General
Unique ID : 261713410845097696131884750813270853452 (0xC4E42B6300FE1BCB250CE67987EB474C)
Complete name : D:\Torrents\SPORT\Formula 1\F1.2018.Qualifying\F1.2018.05.Spain.Qualifying.720p..Ukr.Dan.
Format :
Format version : Version 4 / Version 2
File size : 3.01 GiB
Duration : 1 h 4 min
Overall bit rate : 6 706 kb/s
Movie name : F1 2018 05 Spain Qualifying 720p by sergiyko
Encoded date : UTC 2018-05-12 17:17:01
Writing application : v23.0.0 ('The Bride Said No') 64-bit
Writing library : libebml v1.3.6 + v1.4.9

Video
ID : 1
Format : AVC
Format/Info : Advanced Video Codec
Format profile : [email protected]
Format settings, CABAC : Yes
Format settings, ReFrames : 4 frames
Codec ID : V_MPEG4/ISO/AVC
Duration : 1 h 4 min
Bit rate : 5 974 kb/s
Width : 1 280 pixels
Height : 720 pixels
Display aspect ratio : 16:9
Frame rate mode : Constant
Frame rate : 50.000 FPS
Color space : YUV
Chroma subsampling : 4:2:0
Bit depth : 8 bits
Scan type : Progressive
Bits/(Pixel*Frame) : 0.130
Stream size : 2.68 GiB (89%)
Title : F1 2018 05 Spain Qualifying
Writing library : core 148 r2744 b97ae06
Encoding settings : opencl=1 / cabac=1 / ref=3 / deblock=1:0:0 / analyse=0x3:0x113 / me=hex / subme=7 / psy=1 / psy_rd=1.00:0.00 / mixed_ref=1 / me_range=16 / chroma_me=1 / trellis=1 / 8x8dct=1 / cqm=0 / deadzone=21,11 / fast_pskip=1 / chroma_qp_offset=-2 / threads=22 / lookahead_threads=3 / sliced_threads=0 / nr=0 / decimate=1 / interlaced=0 / bluray_compat=0 / constrained_intra=0 / bframes=3 / b_pyramid=2 / b_adapt=1 / b_bias=0 / direct=1 / weightb=1 / open_gop=0 / weightp=2 / keyint=250 / keyint_min=25 / scenecut=40 / intra_refresh=0 / rc_lookahead=40 / rc=crf / mbtree=1 / crf=18.0 / qcomp=0.60 / qpmin=0 / qpmax=69 / qpstep=4 / ip_ratio=1.40 / aq=1:1.00
Language : Danish
Default : Yes
Forced : No

Audio #1
ID : 2
Format : MPEG Audio
Format version : Version 1
Format profile : Layer 2
Codec ID : A_MPEG/L2
Codec ID/Hint : MP2
Duration : 1 h 4 min
Bit rate mode : Constant
Bit rate : 192 kb/s
Channel(s) : 2 channels
Sampling rate : 48.0 kHz
Frame rate : 41.667 FPS (1152 spf)
Compression mode : Lossy
Stream size : 88.2 MiB (3%)
Title : 1 Авто | Максим Подзігун
Language : Ukrainian
Default : Yes
Forced : Yes

Audio #2
ID : 3
Format : AC-3
Format/Info : Audio Coding 3
Mode extension : CM (complete main)
Format settings, Endianness : Big
Codec ID : A_AC3
Duration : 1 h 4 min
Bit rate mode : Constant
Bit rate : 384 kb/s
Channel(s) : 6 channels
Channel positions : Front: L C R, Side: L R, LFE
Sampling rate : 48.0 kHz
Frame rate : 31.250 FPS (1536 spf)
Bit depth : 16 bits
Compression mode : Lossy
Stream size : 246 MiB (8%)
Language : Danish
Default : No
Forced : No
Скріншоти:


Автор запису/зведення: sergiyko


 Трекер:    Зареєстрований   

Завантажити / скачати торрент



відео для новачків



 Зареєстрований:   2018-05-12 20:31
 Розмір:   3.01 GB 
 Оцінка:   9.4/10 (Голосів: 16)
   
Umbrella.Corps 
Свій


З нами з: 09.04.17
Востаннє: 27.09.20
Повідомлень: 60

2018-05-12 23:41  
Дякую! )
blackolehUA 
Новенький


З нами з: 02.05.18
Востаннє: 02.09.20
Повідомлень: 2

2018-05-13 17:40  
Чудово. Дякую
sergiyko.5 
VIP


З нами з: 25.02.16
Востаннє: 21.10.20
Повідомлень: 3588

2018-05-26 08:12  
Кваліфікацію Монако зроблю о 21-22 годині.
legioneRRR 
Частий відвідувач


З нами з: 02.01.15
Востаннє: 21.10.20
Повідомлень: 33

2018-05-26 14:17  
sergiyko.5 написано:
о 21-22 годині.

будемо чекати =)

BazaF1 
Новенький


З нами з: 18.06.10
Востаннє: 21.10.20
Повідомлень: 6

2018-05-26 18:15  
Скорше-скорше-скорше
ProgBassing 
Попереджень: 1
Попереджень: 1 


З нами з: 08.03.08
Востаннє: 21.10.20
Повідомлень: 873

2018-05-26 19:30  
отже так, сьогодні в квалі Маґнусен з команди Хаас... )))
Ваш часовий пояс: GMT + 2 Години

Нова тема   Відповісти