Нічні ігри / Game Night (2018) Remux 1080p Ukr/Eng | Sub Eng

Нові коментарі

Нова тема   Відповісти
Автор Повідомлення
staf777 
Попереджень: 1
Попереджень: 1 


З нами з: 16.11.16
Востаннє: 22.10.18
Повідомлень: 1649

2018-05-12 17:03  
Нічні ігри / Game Night (2018) Remux 1080p Ukr/Eng | Sub Eng

Нічні ігри / Game Night (2018) Remux 1080p Ukr/Eng | Sub Eng


Жанр: детектив, комедія, кримінальний, трилер
Країна: США



Кінокомпанія: Access Entertainment, Access Industries, Aggregate Films
Режисер: Джон Френсіс Дейлі, Джонатан М. Голдштейн
Актори: Джейсон Бейтман, Рейчел МакАдамс, Кайл Чандлер, Шерон Хорган, Біллі Магнуссен, Ламорн Морріс, Кайлі Банбері, Джессі Племонс, Майкл С. Холл, Денні Х'юстон

Сюжет:
Кілька пар люблять регулярно збиратися разом для вечора ігор. Але в один з таких вечорів їм доводиться розслідувати справжнє вбивство.


Тривалість: 01:40:05
Якість: Remux 1080p
Відео:
кодек:
розмір кадру: 1920x1080
бітрейт: 29,8 Mб/с

Аудіо # 1:
мова: українська
переклад: професійний дубльований
кодек: 2.0
бітрейт: 192 кб/с

Аудіо # 2:
мова: англійська
переклад: оригінал
кодек: -HD MA 5.1
бітрейт: 3596 кб/с

Субтитри # 1-2:
мова: англійська
тип: програмні (м'які)
формат: *.srt
Info
General
Unique ID : 183329303440399314649031522678266315806 (0x89EBF0843F9D6397AE1E6B745432C41E)
Complete name : H:\Game Night (2018) Remux 1080p [Ukr][Eng][ Sub Eng][Hurtom].
Format :
Format version : Version 4 / Version 2
File size : 23.5 GiB
Duration : 1 h 40 min
Overall bit rate mode : Variable
Overall bit rate : 33.6 Mb/s
Movie name : Game Night (2018) Remux 1080p [Ukr][Eng][ Sub Eng][Hurtom]
Encoded date : UTC 2018-05-13 08:31:57
Writing application : v9.8.0 ('Kuglblids') 64bit
Writing library : libebml v1.3.4 + v1.4.5
Cover : Yes
Attachments : cover.jpg

Video
ID : 1
Format : AVC
Format/Info : Advanced Video Codec
Format profile : [email protected]
Format settings : CABAC / 4 Ref Frames
Format settings, CABAC : Yes
Format settings, ReFrames : 4 frames
Codec ID : V_MPEG4/ISO/AVC
Duration : 1 h 40 min
Bit rate mode : Variable
Bit rate : 29.8 Mb/s
Maximum bit rate : 34.0 Mb/s
Width : 1 920 pixels
Height : 1 080 pixels
Display aspect ratio : 16:9
Frame rate mode : Constant
Frame rate : 23.976 (24000/1001) FPS
Color space : YUV
Chroma subsampling : 4:2:0
Bit depth : 8 bits
Scan type : Progressive
Bits/(Pixel*Frame) : 0.600
Stream size : 20.9 GiB (89%)
Language : English
Default : Yes
Forced : No

Audio #1
ID : 2
Format : AC-3
Format/Info : Audio Coding 3
Codec ID : A_AC3
Duration : 1 h 40 min
Bit rate mode : Constant
Bit rate : 192 kb/s
Channel(s) : 2 channels
Channel positions : Front: L R
Sampling rate : 48.0 kHz
Frame rate : 31.250 FPS (1536 SPF)
Bit depth : 16 bits
Compression mode : Lossy
Stream size : 137 MiB (1%)
Title : [UA-DUB-Postmodern ]
Language : Ukrainian
Service kind : Complete Main
Default : Yes
Forced : Yes

Audio #2
ID : 3
Format :
Format/Info : Digital Theater Systems
Format profile : MA / Core
Codec ID : A_DTS
Duration : 1 h 40 min
Bit rate mode : Variable / Constant
Bit rate : 3 596 kb/s / 1 509 kb/s
Channel(s) : 6 channels
Channel positions : Front: L C R, Side: L R, LFE
Sampling rate : 48.0 kHz
Frame rate : 93.750 FPS (512 SPF)
Bit depth : 24 bits
Compression mode : Lossless / Lossy
Stream size : 2.51 GiB (11%)
Title : Original
Language : English
Default : No
Forced : No

Text #1
ID : 4
Format : UTF-8
Codec ID : S_TEXT/UTF8
Codec ID/Info : UTF-8 Plain Text
Duration : 1 h 39 min
Bit rate : 92 b/s
Count of elements : 2245
Stream size : 67.3 KiB (0%)
Title : Full
Language : English
Default : No
Forced : No

Text #2
ID : 5
Format : UTF-8
Codec ID : S_TEXT/UTF8
Codec ID/Info : UTF-8 Plain Text
Duration : 1 h 39 min
Bit rate : 99 b/s
Count of elements : 2205
Stream size : 72.3 KiB (0%)
Title : SDH
Language : English
Default : No
Forced : No

Menu
00:00:00.000 : en:00:00:00.000
00:10:35.093 : en:00:10:35.093
00:18:37.116 : en:00:18:37.116
00:32:24.860 : en:00:32:24.860
00:42:40.308 : en:00:42:40.308
00:52:27.353 : en:00:52:27.353
01:02:01.301 : en:01:02:01.301
01:11:50.932 : en:01:11:50.932
01:22:36.743 : en:01:22:36.743
01:32:54.903 : en:01:32:54.903
Скріншоти




Подяка AngryBirdsUA, Hanway'ю за доріжку та igor911 за допомогу

Підтримати купівлю інших фільмів можна тут.

Джерело: &
Особиста оцінка: 0 - не дивився


Золотий реліз (завантажене не впливає на рейтинг)
 Трекер:    Зареєстрований   

Завантажити / скачати фільм українською



відео для новачків



 Зареєстрований:   2018-05-13 12:03
 Розмір:   23.52 GB 
 Оцінка фільму:   9.5/10 (Голосів: 12)
   
Інші релізи
   Нічні ігри / Game Night (2018) igor911  54 / 0   1.53 GB   2018-06-04 13:38 
   Нічні ігри / Game Night (2018) 720p Ukr/Eng | Sub Eng 11FrYkT  36 / 0   5.31 GB   2018-06-02 22:54 
   Нічні ігри / Game Night (2018) AVC Ukr/Eng | Sub Eng 11FrYkT  52 / 0   1.45 GB   2018-06-02 18:15 
   Нічні ігри / Game Night (2018) 1080p-mini H.265 Ukr/Eng | Sub Eng ukr_anonymous  23 / 0   3.5 GB   2018-05-23 13:21 
   Нічні ігри / Game Night (2018) 1080p Ukr/Eng | Sub Eng staf777  20 / 0   11.32 GB   2018-05-13 12:53 
-_-В_E_N_D_E_R-_- 
Забанено
Забанено


З нами з: 22.04.18
Востаннє: 24.06.18
Повідомлень: 190

2018-05-12 18:24  
staf777 написано:
Підтримати купівлю інших фільмів можна тут.

Хтось обмежив доступ до цієї теми?

leicheman 
Відео Гуртом - підтримка та поширення
Відео Гуртом - підтримка та поширення


З нами з: 03.07.14
Востаннє: 22.10.18
Повідомлень: 2850

2018-05-13 11:46  
-_-В_E_N_D_E_R-_-
Мабуть вона прихована(для безпеки), а в тебе профіль новий от і не пускає.

bot 
робот


З нами з: 30.09.07
Востаннє: 26.05.05
Повідомлень: 19985

2018-05-13 12:03  
Тему перенесено з Анонси релізів до форуму Фільми в HD


staf777

Ваш часовий пояс: GMT + 2 Години

Нова тема   Відповісти