Ірландець / Kill the Irishman (2011) 1080p 2xUkr/Eng | Sub Eng

Нові коментарі

Нова тема   Відповісти
Автор Повідомлення
staf777 
Відео Гуртом - підтримка та поширення
Відео Гуртом - підтримка та поширення


З нами з: 16.11.16
Востаннє: 08.12.19
Повідомлень: 3038

2018-05-12 13:07  
Ірландець / Kill the Irishman (2011) 1080p 2xUkr/Eng | Sub Eng

Ірландець / Kill the Irishman (2011) 1080p 2xUkr/Eng | Sub Eng


Жанр: кримінальний, трилер, біографічний
Країна: США



Кінокомпанія: Anchor Bay Films, Code Entertainment, Dundee Entertainment
Режисер: Джонатан Хенслиі
Актори: Рей Стівенсон, Вінсент Донофріо, Вел Кілмер, Крістофер Вокен, Тоні Дарров

Сюжет:
Денні Грін — людина, в якій ірландський войовничий дух змішався з гордістю, жорстокістю, амбіціями і принципами, завдяки чому він став головною фігурою мафіозної війни 1970-х років. Війни, що назавжди змінила структуру організованої злочинності в Америці.


Тривалість: 01:46:36
Якість: 1080p
Відео:
кодек:
розмір кадру: 1920x1080
бітрейт: 13.3 Mб/с

Аудіо # 1:
мова: українська
переклад: багатоголосий закадровий
кодек: 2.0
бітрейт: 192 кб/с

Аудіо # 2:
мова: українська
переклад: двоголосий закадровий
кодек: 2.0
бітрейт: 192 кб/с

Аудіо # 3:
мова: англійська
переклад: оригінал
кодек: 5.1
бітрейт: 640 кб/с

Субтитри :
мова: англійська
тип: програмні (м'які)
формат: *.srt
Скріншоти





MI
General
Unique ID : 175051015889736034876435360462257323671 (0x83B1996DAC95A257957047694988FE97)
Complete name : H:\Майбутні релізи\Kill the Irishman (2011) 1080p [2xUKR_ENG] [Hurtom].
Format :
Format version : Version 4 / Version 2
File size : 10.6 GiB
Duration : 1 h 46 min
Overall bit rate : 14.3 Mb/s
Movie name : Kill the Irishman (2011) 1080p [2xUKR_ENG] [Hurtom]
Encoded date : UTC 2018-05-12 09:53:02
Writing application : v9.8.0 ('Kuglblids') 64bit
Writing library : libebml v1.3.4 + v1.4.5
Cover : Yes
Attachments : cover.jpg

Video
ID : 1
Format : AVC
Format/Info : Advanced Video Codec
Format profile : [email protected]
Format settings : CABAC / 4 Ref Frames
Format settings, CABAC : Yes
Format settings, ReFrames : 4 frames
Codec ID : V_MPEG4/ISO/AVC
Duration : 1 h 46 min
Bit rate : 13.3 Mb/s
Width : 1 920 pixels
Height : 1 080 pixels
Display aspect ratio : 16:9
Frame rate mode : Constant
Frame rate : 23.976 (24000/1001) FPS
Color space : YUV
Chroma subsampling : 4:2:0
Bit depth : 8 bits
Scan type : Progressive
Bits/(Pixel*Frame) : 0.267
Stream size : 9.87 GiB (93%)
Title : Kill the Irishman.2011..1080p.[denis100]
Writing library : core 148 r2705 3f5ed56
Encoding settings : cabac=1 / ref=4 / deblock=1:-3:-3 / analyse=0x3:0x133 / me=umh / subme=11 / psy=1 / psy_rd=1.00:0.05 / mixed_ref=1 / me_range=32 / chroma_me=1 / trellis=2 / 8x8dct=1 / cqm=0 / deadzone=21,11 / fast_pskip=0 / chroma_qp_offset=-3 / threads=6 / lookahead_threads=1 / sliced_threads=0 / nr=0 / decimate=1 / interlaced=0 / bluray_compat=0 / constrained_intra=0 / bframes=10 / b_pyramid=2 / b_adapt=2 / b_bias=0 / direct=3 / weightb=1 / open_gop=0 / weightp=2 / keyint=240 / keyint_min=23 / scenecut=40 / intra_refresh=0 / rc=2pass / mbtree=0 / bitrate=13268 / ratetol=1.0 / qcomp=0.60 / qpmin=0 / qpmax=69 / qpstep=4 / cplxblur=20.0 / qblur=0.5 / ip_ratio=1.40 / pb_ratio=1.30 / aq=1:0.90
Language : English
Default : Yes
Forced : No

Audio #1
ID : 2
Format : AC-3
Format/Info : Audio Coding 3
Codec ID : A_AC3
Duration : 1 h 46 min
Bit rate mode : Constant
Bit rate : 192 kb/s
Channel(s) : 2 channels
Channel positions : Front: L R
Sampling rate : 48.0 kHz
Frame rate : 31.250 FPS (1536 SPF)
Bit depth : 16 bits
Compression mode : Lossy
Stream size : 146 MiB (1%)
Title : [UA-MVO-Cine+]
Language : Ukrainian
Service kind : Complete Main
Default : Yes
Forced : Yes

Audio #2
ID : 3
Format : AC-3
Format/Info : Audio Coding 3
Codec ID : A_AC3
Duration : 1 h 46 min
Bit rate mode : Constant
Bit rate : 192 kb/s
Channel(s) : 2 channels
Channel positions : Front: L R
Sampling rate : 48.0 kHz
Frame rate : 31.250 FPS (1536 SPF)
Bit depth : 16 bits
Compression mode : Lossy
Stream size : 146 MiB (1%)
Title : [UA-DVO-1+1]
Language : Ukrainian
Service kind : Complete Main
Default : No
Forced : No

Audio #3
ID : 4
Format : AC-3
Format/Info : Audio Coding 3
Codec ID : A_AC3
Duration : 1 h 46 min
Bit rate mode : Constant
Bit rate : 640 kb/s
Channel(s) : 6 channels
Channel positions : Front: L C R, Side: L R, LFE
Sampling rate : 48.0 kHz
Frame rate : 31.250 FPS (1536 SPF)
Bit depth : 16 bits
Compression mode : Lossy
Stream size : 488 MiB (4%)
Language : English
Service kind : Complete Main
Default : No
Forced : No

Text
ID : 5
Format : UTF-8
Codec ID : S_TEXT/UTF8
Codec ID/Info : UTF-8 Plain Text
Duration : 1 h 39 min
Bit rate : 59 b/s
Count of elements : 1227
Stream size : 42.9 KiB (0%)
Language : English
Default : No
Forced : No

Menu
00:00:00.000 : en:00:00:00.000
00:08:48.653 : en:00:08:48.653
00:15:00.191 : en:00:15:00.191
00:21:40.925 : en:00:21:40.925
00:28:59.780 : en:00:28:59.780
00:35:09.149 : en:00:35:09.149
00:42:08.860 : en:00:42:08.860
00:44:18.030 : en:00:44:18.030
00:49:49.653 : en:00:49:49.653
00:53:30.958 : en:00:53:30.958
00:57:42.125 : en:00:57:42.125
01:02:27.786 : en:01:02:27.786
01:07:33.049 : en:01:07:33.049
01:14:18.037 : en:01:14:18.037
01:17:41.657 : en:01:17:41.657
01:19:29.848 : en:01:19:29.848
01:24:27.479 : en:01:24:27.479
01:29:40.750 : en:01:29:40.750
01:33:43.910 : en:01:33:43.910
01:39:55.031 : en:01:39:55.031
Джерело:
За доріжку з Cine+ дякую пану Sando7 Arsenfpu
За доріжку від 1+1 дякую п. Zetonik-z, MAKAPOHHIK
Особиста оцінка: 10 - без зайвих вагань рекомендую всім!


 Трекер:    Зареєстрований   

Завантажити / скачати фільм українською



відео для новачків



 Зареєстрований:   2018-05-12 13:08
 Розмір:   10.64 GB 
 Оцінка фільму:   9.1/10 (Голосів: 10)
   
Інші релізи
   Ірландець / Kill the Irishman (2011) AVC 2xUkr/Eng | Sub Eng staf777  7 / 0   2.53 GB   2019-04-12 18:23 
   Ірландець / Kill the Irishman (2011) Remux 1080p 2xUkr/Eng | Sub Eng IronBee  1 / 0   24.49 GB   2018-05-20 13:48 
   Ірландець / Kill the Irishman (2011) 2xUkr/Eng Arsenfpu  9 / 0   2.05 GB   2017-10-01 22:23 
   Ірландець / Kill the Irishman (2011) 720р-mini Ukr/Eng AngryBirdsUA  1 / 0   2.15 GB   2012-03-30 11:48 
   Ірландець / Kill the Irishman (2011) 720р Ukr/Eng | Sub Eng pyatachok  4 / 0   6.62 GB   2012-03-10 23:11 
bot 
робот


З нами з: 30.09.07
Востаннє: 26.05.05
Повідомлень: 22595

2018-05-12 13:08  
Тему перенесено з Анонси релізів до форуму Фільми в HD


staf777

Ваш часовий пояс: GMT + 2 Години

Нова тема   Відповісти