Дикі предки / Early Man (2018) 1080p Ukr/Eng | Sub Eng

Нові коментарі

Нова тема   Відповісти
Автор Повідомлення
staf777 
Відео Гуртом - підтримка та поширення
Відео Гуртом - підтримка та поширення


З нами з: 16.11.16
Востаннє: 08.03.21
Повідомлень: 5117

2018-05-12 12:26  
Дикі предки / Early Man (2018) 1080p Ukr/Eng | Sub Eng



«На межі століть легко потрапити в історію»



Жанр: анімація, пригодницький, комедія, фентезі, сімейний
Країна: США, Велика Британія, Франція



Кінокомпанія: Aardman Animations, Amazon Prime Instant Video, BFI's Film Found
Режисер: Нік Парк
Актори: Том Гіддлстон, Едді Редмейн, Мейсі Вільямс, Тімоті Сполл, Марк Уільямс, Міріам Маргуліс, Роб Брайдон, Нік Парк, Джонні Вегас

Сюжет:
Події «Диких предків» будуть розвиватися на зорі часів, коли по землі бігали динозаври і мамонти. Мультфільм розповість історію про те, як одна хоробра печерна людина об'єднує своє плем'я проти могутнього ворога і рятує день.


Тривалість: 01:28:40
Якість: 1080р

Відео:
кодек:
розмір кадру: 1920x1040
бітрейт: 13 Mб/с

Аудіо # 1:
мова: українська
переклад: професійний дубльований
кодек: 5.1
бітрейт: 384 кб/с

Аудіо # 2:
мова: англійська
переклад: оригінал
кодек: 5.1
бітрейт: 448 кб/с

Субтитри:
мова: англійська
тип: програмні (м'які)
формат: *.srt
Info
Код:
General
Unique ID                   : 190465232799776067268540800732431182401 (0x8F4A44FF5A5DC91EBC7483FF3F64EA41)
Complete name               : I:\Early Man (2018) 1080p [Ukr][Eng][Sub Eng][Hurtom].
Format                      :
Format version              : Version 4 / Version 2
File size                   : 8.56 GiB
Duration                    : 1 h 28 min
Overall bit rate mode       : Variable
Overall bit rate            : 13.8 Mb/s
Movie name                  : Early Man (2018) 1080p [Ukr][Eng][Sub Eng][Hurtom]
Encoded date                : UTC 2018-05-22 04:34:36
Writing application         : v9.8.0 ('Kuglblids') 64bit
Writing library             : libebml v1.3.4 + v1.4.5
Cover                       : Yes
Attachments                 : cover.jpg

Video
ID                          : 1
Format                      : AVC
Format/Info                 : Advanced Video Codec
Format profile              : [email protected]
Format settings             : CABAC / 3 Ref Frames
Format settings, CABAC      : Yes
Format settings, ReFrames   : 3 frames
Codec ID                    : V_MPEG4/ISO/AVC
Duration                    : 1 h 28 min
Bit rate mode               : Variable
Bit rate                    : 13.0 Mb/s
Maximum bit rate            : 50.0 Mb/s
Width                       : 1 920 pixels
Height                      : 1 040 pixels
Display aspect ratio        : 1.85:1
Frame rate mode             : Constant
Frame rate                  : 23.976 (24000/1001) FPS
Color space                 : YUV
Chroma subsampling          : 4:2:0
Bit depth                   : 8 bits
Scan type                   : Progressive
Bits/(Pixel*Frame)          : 0.272
Stream size                 : 8.04 GiB (94%)
Writing library             : core 142 r2431+42 c69a006 tMod [[email protected] X86_64]
Encoding settings           : cabac=1 / ref=4 / deblock=1:-3:-3 / analyse=0x3:0x133 / me=umh / subme=11 / psy=1 / fade_compensate=0.00 / psy_rd=1.04:1.05 / mixed_ref=1 / me_range=48 / chroma_me=1 / trellis=2 / 8x8dct=1 / cqm=0 / deadzone=21,11 / fast_pskip=0 / chroma_qp_offset=-4 / threads=16 / lookahead_threads=2 / sliced_threads=0 / nr=0 / decimate=0 / interlaced=0 / bluray_compat=0 / constrained_intra=0 / fgo=0 / bframes=8 / b_pyramid=1 / b_adapt=2 / b_bias=0 / direct=3 / weightb=1 / open_gop=0 / weightp=2 / keyint=240 / keyint_min=23 / scenecut=40 / intra_refresh=0 / rc_lookahead=150 / rc=2pass / mbtree=0 / bitrate=13000 / ratetol=1.0 / qcomp=0.70 / qpmin=0:0:0 / qpmax=69:69:69 / qpstep=4 / cplxblur=20.0 / qblur=0.5 / vbv_maxrate=50000 / vbv_bufsize=62500 / nal_hrd=vbr / filler=0 / ip_ratio=1.30 / pb_ratio=1.20 / aq=2:0.80 / aq-sensitivity=10.00 / aq-factor=1.00:1.00:1.00 / aq2=0 / aq3=0
Language                    : English
Default                     : Yes
Forced                      : No
Color range                 : Limited
Color primaries             : BT.709
Transfer characteristics    : BT.709
Matrix coefficients         : BT.709

Audio #1
ID                          : 2
Format                      : AC-3
Format/Info                 : Audio Coding 3
Codec ID                    : A_AC3
Duration                    : 1 h 28 min
Bit rate mode               : Constant
Bit rate                    : 384 kb/s
Channel(s)                  : 6 channels
Channel positions           : Front: L C R, Side: L R, LFE
Sampling rate               : 48.0 kHz
Frame rate                  : 31.250 FPS (1536 SPF)
Bit depth                   : 16 bits
Compression mode            : Lossy
Stream size                 : 244 MiB (3%)
Title                       : iTunes
Language                    : Ukrainian
Service kind                : Complete Main
Default                     : Yes
Forced                      : Yes

Audio #2
ID                          : 3
Format                      : AC-3
Format/Info                 : Audio Coding 3
Codec ID                    : A_AC3
Duration                    : 1 h 28 min
Bit rate mode               : Constant
Bit rate                    : 448 kb/s
Channel(s)                  : 6 channels
Channel positions           : Front: L C R, Side: L R, LFE
Sampling rate               : 48.0 kHz
Frame rate                  : 31.250 FPS (1536 SPF)
Bit depth                   : 16 bits
Compression mode            : Lossy
Stream size                 : 284 MiB (3%)
Title                       : Original
Language                    : English
Service kind                : Complete Main
Default                     : No
Forced                      : No

Text
ID                          : 4
Format                      : UTF-8
Codec ID                    : S_TEXT/UTF8
Codec ID/Info               : UTF-8 Plain Text
Duration                    : 1 h 25 min
Bit rate                    : 62 b/s
Count of elements           : 1554
Stream size                 : 39.5 KiB (0%)
Language                    : English
Default                     : No
Forced                      : No

Menu
00:00:00.000                : en:00:00:00.000
00:06:07.701                : en:00:06:07.701
00:09:12.635                : en:00:09:12.635
00:16:28.112                : en:00:16:28.112
00:20:00.699                : en:00:20:00.699
00:25:48.255                : en:00:25:48.255
00:30:27.659                : en:00:30:27.659
00:34:12.092                : en:00:34:12.092
00:40:13.995                : en:00:40:13.995
00:45:28.142                : en:00:45:28.142
00:50:12.301                : en:00:50:12.301
00:57:18.643                : en:00:57:18.643
01:00:41.137                : en:01:00:41.137
01:04:59.187                : en:01:04:59.187
01:11:13.060                : en:01:11:13.060
01:16:59.823                : en:01:16:59.823
Скріншоти





Джерело: &
Особиста оцінка: 0 - не дивився


 Трекер:    Зареєстрований   

Завантажити / скачати мультфільм українською



відео для новачків



 Зареєстрований:   2018-05-22 06:52
 Розмір:   8.56 GB 
 Оцінка мультфільму:   9.5/10 (Голосів: 26)
   
Інші релізи
   Дикі предки / Early Man (2018) AVC Ukr/Eng | Sub Eng 11FrYkT  2 / 0   2.25 GB   2018-05-22 21:05 
   Дикі предки / Early Man (2018) Remux 1080p Ukr/Eng | Sub Eng staf777  1 / 0   24.64 GB   2018-05-22 10:57 
   Дикі предки / Early Man (2018) igor911  10 / 0   1.42 GB   2018-05-22 07:59 
   Дикі предки / Early Man (2018) 720p Ukr/Eng | Sub Eng 11FrYkT  6 / 0   3.76 GB   2018-05-22 06:01 
bot 
робот


З нами з: 30.09.07
Востаннє: 26.05.05
Повідомлень: 27338

2018-05-22 06:50  
Тему перенесено з Анонси релізів до форуму Мультфільми в HD


staf777

madagaskar1 
VIP


З нами з: 08.05.14
Востаннє: 07.03.21
Повідомлень: 931

2018-05-25 09:07  
дуже класний мультик і озвучення 10/10
Ваш часовий пояс: GMT + 2 Години

Нова тема   Відповісти