Дикі предки / Early Man (2018)

Нові коментарі

Нова тема   Відповісти
Автор Повідомлення
Anonymous 







2018-05-12 10:48  
Дикі предки / Early Man (2018)



Жанр: анімація, пригодницький, комедія, фентезі, сімейний, спорт, футбол
Країна: США, Велика Британія, Франція



Кінокомпанія: Aardman Animations, Amazon Prime Instant Video, BFI's Film Found
Режисер: Нік Парк
Актори: Том Гіддлстон, Едді Редмейн, Мейсі Вільямс, Тімоті Сполл, Марк Уільямс, Міріам Маргуліс, Роб Брайдон, Нік Парк, Джонні Вегас

Сюжет:
Події «Диких предків» будуть розвиватися на зорі часів, коли по землі бігали динозаври і мамонти. Мультфільм розповість історію про те, як одна хоробра печерна людина об'єднує своє плем'я проти могутнього ворога і рятує день.
Офіційні українські трейлери:




Рейтинг MPAA: PG - рекомендується присутність батьків
Вікова категорія: 12+

Тривалість: 01:28:40
Якість:

Відео:
кодек:
розмір кадру: 720 х 384
бітрейт: 1901 кб/с

Аудіо:
мова: українська
переклад: професійний дубльований | студія Pie Post Production
кодек: 5.1
бітрейт: 384 кб/с
Інформація про дубляж

Переклад: Сергій Ковальчук
Режисер дубляжу: Лідія Громовенко
Звукорежисери: Ганна Гаврилюк та Роман Матвєєв
Звукорежисер перезапису: Віталій Ящук
Ролі дублювали: Ахтем Сеїтаблаєв, Віктор Вацко, Павло Скороходько, Юлія Перенчук, Михайло Кришталь, Дмитро Сова, Олена Узлюк, Олександр Погребняк, Андрій Альохін, Олександр Завальський, Дмитро Вікулов та інші.

Фільм дубльовано студією Pie Post Production на замовлення компанії "Вольга Україна".
Info
Код:
General
Complete name               : Early Man (2018) [Ukr] [Hurtom].avi
Format                      : AVI
Format/Info                 : Audio Video Interleave
File size                   : 1.42 GiB
Duration                    : 1 h 28 min
Overall bit rate            : 2 294 kb/s
Movie name                  : Дикі предки / Early Man (2018) [Ukr] [Hurtom]
Genre                       : анімація, пригодницький, комедія, фентезі, сімейний
Recorded date               : 22.05.2018
Writing application         : VirtualDubModUkr 1.5.10.2 (build 2542/release)
Writing library             : VirtualDubMod build 2542/release
Comment                     : https://toloka.to/t89893

Video
ID                          : 0
Format                      : MPEG-4 Visual
Format profile              : Advanced [email protected]
Format settings             : BVOP1 / Custom Matrix
Format settings, BVOP       : 1
Format settings, QPel       : No
Format settings, GMC        : No warppoints
Format settings, Matrix     : Custom
Codec ID                    :
Codec ID/Hint               :
Duration                    : 1 h 28 min
Bit rate                    : 1 901 kb/s
Width                       : 704 pixels
Height                      : 384 pixels
Display aspect ratio        : 1.85:1
Frame rate                  : 23.976 (24000/1001) FPS
Color space                 : YUV
Chroma subsampling          : 4:2:0
Bit depth                   : 8 bits
Scan type                   : Progressive
Compression mode            : Lossy
Bits/(Pixel*Frame)          : 0.293
Stream size                 : 1.18 GiB (83%)
Writing library             : 73

Audio
ID                          : 1
Format                      : AC-3
Format/Info                 : Audio Coding 3
Codec ID                    : 2000
Duration                    : 1 h 28 min
Bit rate mode               : Constant
Bit rate                    : 384 kb/s
Channel(s)                  : 6 channels
Channel positions           : Front: L C R, Side: L R, LFE
Sampling rate               : 48.0 kHz
Frame rate                  : 31.250 FPS (1536 SPF)
Bit depth                   : 16 bits
Compression mode            : Lossy
Stream size                 : 244 MiB (17%)
Alignment                   : Split accross interleaves
Interleave, duration        : 42  ms (1.00 video frame)
Interleave, preload duratio : 500  ms
Title                       : UKR DUB [Pie Post Production, iTunes]
Service kind                : Complete Main


Джерело: &
Особиста оцінка: 7/10 - гарний смішний мульт, чудовий переклад, рекомендую до перегляду


 Трекер:    Зареєстрований   

Завантажити / скачати мультфільм українською



відео для новачків



 Зареєстрований:   2018-05-22 08:59
 Розмір:   1.42 GB 
 Оцінка мультфільму:   9.4/10 (Голосів: 107)
   
Інші релізи
   Дикі предки / Early Man (2018) AVC Ukr/Eng | Sub Eng 11FrYkT  11 / 0   2.25 GB   2018-05-22 22:05 
   Дикі предки / Early Man (2018) Remux 1080p Ukr/Eng | Sub Eng staf777  3 / 0   24.64 GB   2018-05-22 11:57 
   Дикі предки / Early Man (2018) 1080p Ukr/Eng | Sub Eng staf777  7 / 0   8.56 GB   2018-05-22 07:52 
   Дикі предки / Early Man (2018) 720p Ukr/Eng | Sub Eng 11FrYkT  7 / 0   3.76 GB   2018-05-22 07:01 
Petro58 
Новенький


З нами з: 24.06.17
Востаннє: 16.09.20
Повідомлень: 18

2018-05-22 14:15  
Дякую!
motsyuk 
Частий відвідувач


З нами з: 08.03.18
Востаннє: 29.06.20
Повідомлень: 29

2018-05-22 21:16  
цей вождь схожий на Турчинова
Ergo Proxy 
Поважний учасник


З нами з: 23.05.12
Востаннє: 22.10.20
Повідомлень: 168

2018-05-23 23:17  
якась єресь?
Anonymous 







2018-05-23 23:28  
Ergo Proxy, додав оф.трейлери та вікові обмеження.
Alex_Kraska 
Свій


З нами з: 27.12.11
Востаннє: 14.10.20
Повідомлень: 120

2018-05-24 18:57  
Дякую, цікавий.
helpmesha 
Частий відвідувач


З нами з: 10.07.16
Востаннє: 21.10.20
Повідомлень: 39

2018-05-28 14:27  
Чому в описі мультика не написано що він про футбол? Ненавиджу футбол Sad (1)
qarty1 
VIP


З нами з: 01.11.09
Востаннє: 22.10.20
Повідомлень: 387

2018-06-05 12:02  
мало дали Віктору Вацко ефірного часу. з початку навіть не впізнав його голос
kino333 
Новенький


З нами з: 27.08.09
Востаннє: 23.10.20
Повідомлень: 16

2018-06-07 20:33  
Прикольний мульт, всією сім'єю із задоволенням подивилися, місцями було навіть дуже весело.
vvmalysh 
Частий відвідувач


З нами з: 06.11.13
Востаннє: 20.10.20
Повідомлень: 28

2018-06-07 22:56  
Дякую, дочекався в українському дубляжі!
kanavarro 
Свій


З нами з: 04.03.12
Востаннє: 28.07.20
Повідомлень: 54

2018-06-11 20:29  
легка, цікава для перегляду мультяшка!
antik_2008 
Релізер і модератор відео


З нами з: 20.10.08
Востаннє: 23.10.20
Повідомлень: 4204

2018-10-26 17:39  
Цікавий мульт, гарна задумка 8/10
Perry 
Новенький


З нами з: 17.07.12
Востаннє: 26.09.20
Повідомлень: 11

2019-03-12 16:58  
Дуже сподобався мультфільм, раджу до перегляду усім (навіть не фанатам футболу).
Якісний переклад Happy

eXteSy- 
VIP


З нами з: 06.04.09
Востаннє: 19.10.20
Повідомлень: 2199

2019-07-06 23:49  
Класний і, що головне, справді смішний мульт. Моделі персонажів - просто бомба! Однак перша половина фільму сподобалася значно більше за другу. Навіть думав поставити тверду десятку. Але наприкінці стало не так цікаво.
8,5/10

СергійС 
Новенький


З нами з: 17.05.12
Востаннє: 22.10.20
Повідомлень: 19

2020-01-08 22:12  
Давно не бачив такого чудового мультфільму. Фантазія авторів безмежна.
Ваш часовий пояс: GMT + 2 Години

Нова тема   Відповісти