Припутні (2017) — Українське кіно

Припутні (2017)

Нові коментарі

Нова тема   Відповісти
Автор Повідомлення
Anonymous 







2018-05-12 08:00  
Припутні (2017)

Припутні (2017)
Альтернативний постер:



Жанр: драма, комедія
Країна: Україна



Кінокомпанія: Star Media
Режисер: Непиталюк Аркадій Анатолійович
Актори: Дмитро Хом'як — Юрко, таксист; Ніна Набока — баба Зіна; Олена Узлюк — Людка; Юлія Врублевська — Світлана; Юліана Ляпкіна — Христя, вчителька; Яків Ткаченко — Славік; Віталій Гарбузюк — Гриша; Захарій Новицький — Станіславович, батько Славіка

Сюжет:
Фільм розповідає про долю трьох жінок, а саме: бабусі, доньки і онуки, чиї долі переплетені, а життя наповнене складнощами і самотністю. Дія картини відбувається в полишеному мешканцями селі Припутні протягом однієї доби, яка кардинально змінить життя усіх героїв.
Офіційні українські тизер та трейлер:




Вікова категорія: 16+
Тривалість: 01:32:30
Якість: [Hurtom]
Відео:
кодек:
розмір кадру: 704 х 400
бітрейт: 2042 кб/с

Аудіо:
мова: українська
переклад: оригінал
кодек: 2.0
бітрейт: 192 кб/с
примітка: присутня ненормативна лексика
Info
Код:
General
Complete name               : Pryputni (2017) [Hurtom].avi
Format                      : AVI
Format/Info                 : Audio Video Interleave
File size                   : 1.45 GiB
Duration                    : 1 h 32 min
Overall bit rate            : 2 243 kb/s
Movie name                  : Припутні (2017) [Hurtom]
Genre                       : драма, комедія, український
Writing application         : VirtualDubModUkr 1.5.10.2 (build 2542/release)
Writing library             : VirtualDubMod build 2542/release
Comment                     : https://toloka.to/t89889

Video
ID                          : 0
Format                      : MPEG-4 Visual
Format profile              : Advanced [email protected]
Format settings             : BVOP1
Format settings, BVOP       : 1
Format settings, QPel       : No
Format settings, GMC        : No warppoints
Format settings, Matrix     : Default (MPEG)
Codec ID                    :
Codec ID/Hint               :
Duration                    : 1 h 32 min
Bit rate                    : 2 042 kb/s
Width                       : 704 pixels
Height                      : 400 pixels
Display aspect ratio        : 16:9
Frame rate                  : 25.000 FPS
Color space                 : YUV
Chroma subsampling          : 4:2:0
Bit depth                   : 8 bits
Scan type                   : Progressive
Compression mode            : Lossy
Bits/(Pixel*Frame)          : 0.290
Stream size                 : 1.32 GiB (91%)
Writing library             : 67

Audio
ID                          : 1
Format                      : AC-3
Format/Info                 : Audio Coding 3
Codec ID                    : 2000
Duration                    : 1 h 32 min
Bit rate mode               : Constant
Bit rate                    : 192 kb/s
Channel(s)                  : 2 channels
Channel positions           : Front: L R
Sampling rate               : 48.0 kHz
Frame rate                  : 31.250 FPS (1536 SPF)
Bit depth                   : 16 bits
Compression mode            : Lossy
Stream size                 : 127 MiB (9%)
Alignment                   : Split accross interleaves
Interleave, duration        : 40  ms (1.00 video frame)
Interleave, preload duratio : 500  ms
Service kind                : Complete Main


Джерело:


Золотий реліз (завантажене не впливає на рейтинг)
 Трекер:    Зареєстрований   

Завантажити / скачати український фільм



відео для новачків



 Зареєстрований:   2018-05-12 10:58
 Розмір:   1.45 GB 
 Оцінка фільму:   8.5/10 (Голосів: 32)
   
Skuggen 
Новенький


З нами з: 02.12.16
Востаннє: 19.08.18
Повідомлень: 5

2018-05-12 14:54  
Бачила у кінотеатрі, дуже чекала, коли зможу взяти у домащню колекцію. Шкода, що не всі зрозуміли суть фільму, але то таке) Дякую за реліз!
tadescu 
Частий відвідувач


З нами з: 02.01.15
Востаннє: 17.08.18
Повідомлень: 27

2018-05-12 21:39  
Чудовий фільм, дуже сподобався!
dihor 
Новенький


З нами з: 06.04.11
Востаннє: 13.07.18
Повідомлень: 16

2018-05-13 17:53  
Дякуємо! Бачили в кінотеатрі, зараз удруге подивимося.
601сан 
Свій


З нами з: 22.05.12
Востаннє: 19.08.18
Повідомлень: 67

2018-06-22 14:49  
Жах жахливий.
[email protected] 
Новенький


З нами з: 18.10.16
Востаннє: 14.08.18
Повідомлень: 7

2018-06-29 11:51  
Щойно намагалася дивитися... І на оце "кіно" держава дала гроші?!! Чого мене вчить цей фільм? Матюкатися?Як жити в общазі? Суцільна чорнуха.
qarty1 
Свій


З нами з: 01.11.09
Востаннє: 20.08.18
Повідомлень: 61

2018-07-02 21:28  
суть фільма не понятна 5.5 міліонів доларів бюджету розпилено
konoglu 
Новенький


З нами з: 03.01.15
Востаннє: 19.08.18
Повідомлень: 14

2018-07-09 21:45  
Фільм сподобався! Показано життя таким, яке воно насправді є!
piznajko 
Відео Гуртом - субтитрування
Відео Гуртом - субтитрування


З нами з: 24.02.09
Востаннє: 20.08.18
Повідомлень: 1694

2018-07-10 01:42  
qarty1 написано:
суть фільма не понятна 5.5 міліонів доларів бюджету розпилено

Взагалі то 8.6 млн. гривень.

Jude2003 
Новенький


З нами з: 12.03.12
Востаннє: 10.08.18
Повідомлень: 1

2018-08-10 08:16  
Український реалізм. Жорстокий, звичайно. Але ніби знову у селі побував. Чудово.
s77evg 
Новенький


З нами з: 02.05.16
Востаннє: 19.08.18
Повідомлень: 9

2018-08-15 00:51  
Це не комедія, це маячня. Фільм жахливий. 1/10
andjuliriy 
Новенький


З нами з: 02.04.15
Востаннє: 16.08.18
Повідомлень: 1

2018-08-16 23:43  
Дивлюсь українське кіно виключно з надією на краще.І о небеса дуже непогана стрічка правда кінець змазаний або я щось не второпав.
whitelaw 
Частий відвідувач


З нами з: 20.05.15
Востаннє: 19.08.18
Повідомлень: 47

2018-08-17 11:24  
Фільм сподобався, схоже на фільм "Майор" та "Дурак".
Leprechaun 
Новенький


З нами з: 10.10.09
Востаннє: 19.08.18
Повідомлень: 15

2018-08-19 21:31  
andjuliriy
через кінець і знятий весь фільм: з самого початку кожен герой злиться та ображається, чим супроводжує виток насилля, аж до найважчого - батьковбивства. Проте останні кадри показують, як треба вчасно зупинятися та миритися

Ваш часовий пояс: GMT + 2 Години

Нова тема   Відповісти