Першому гравцю приготуватися / Ready Player One (2018) Ukr | Sub Kor

Нові коментарі

Нова тема   Відповісти
Автор Повідомлення
Anonymous 







2018-05-11 23:50  
Першому гравцю приготуватися / Ready Player One (2018) Ukr | Sub Kor



Жанр: фантастика, бойовик, пригодницький, кіберпанк
Країна: США



Кінокомпанія: Warner Bros. Pictures, DreamWorks SKG, Amblin Entertainment, Village Roadshow Pictures, De Line Pictures
Режисер: Стівен Спілберг / Steven Spielberg
Актори: Тай Шерідан / Tye Sheridan, Олівія Кук / Olivia Cooke, Бен Мендельсон / Ben Mendelsohn, Саймон Пегг / Simon Pegg, Ті Джей Міллер / T.J. Miller, Ліна Вейт / Lena Waithe, Марк Райленс / Mark Rylance, Він Морісакі / Win Morisaki, Філіп Зао / Philip Zhao, Ханна Джон-Кеймен / Hannah John-Kamen та інші

Сюжет:
На дворі 2045 рік. Світ загруз на межі хаосу, адже велика частина населення просто виживає без достатніх коштів для існування. Щоб піти від непривабливої реальності, багато хто проводить час у грандіозному віртуальному ігровому всесвіті - ОАЗІ. Його створив ексцентричний і геніальний мільярдер Джеймс Холлідей. Після своєї смерті він заповів все своє майно (а це півтрильйона доларів і влада над грою) єдиному гравцеві – тому, хто першим добереться до ретельно захованої "пасхалки". Весь світ тепер готовий поборотися за ці неймовірні багатства. До змагання приєднується і звичайний хлопець-сирота Вейд Воттс (Тай Шерідан) і потрапляє у небезпечне полювання на скарб у фантастичному всесвіті таємниць, відкриттів та ризику...
Офіційні українські промо, тизер, трейлер, бонуси:

промо:


тизер:


трейлер:


інтерв'ю з зі Стівеном Спілбергом, Таєм Шеріданом та Олівією Кук:


Персонаж. Ролик про створення фільму:

Рейтинг MPAA: PG-13 - дітям до 13 років перегляд не бажаний
Вікова категорія: 12+
Тривалість: 02:19:58
Якість:
Відео:
кодек:
розмір кадру: 720 х 304
бітрейт: 1599 кб/с

Аудіо:
мова: українська
переклад: професійний дубльований | студія Postmodern
кодек: 2.0
бітрейт: 192 кб/с
Інформація про дубляж
Режисер дубляжу: Катерина Брайковська
Ролі дублювали: Вейд – Андрій Федінчик, Артеміда – Катерина Буцька, Нолан – Володимир Терещук, Ейч – Світлана Шекера, Голлідей – Олег Лепенець, Ай-Рок – Дмитро Гаврилов та інші.

Фільм дубльовано студією Postmodern.
Субтитри:
мова: корейська
тип: вбудовані (жорсткі)
Info
Код:
General
Complete name               : Ready Player One (2018) [Ukr] [Hurtom].avi
Format                      : AVI
Format/Info                 : Audio Video Interleave
File size                   : 1.76 GiB
Duration                    : 2 h 19 min
Overall bit rate            : 1 803 kb/s
Writing application         : VirtualDubModUkr 1.5.10.2 (build 2542/release)
Writing library             : VirtualDubMod build 2542/release
Comment                     : https://toloka.to/t89885

Video
ID                          : 0
Format                      : MPEG-4 Visual
Format profile              : [email protected]
Format settings, BVOP       : No
Format settings, QPel       : No
Format settings, GMC        : No warppoints
Format settings, Matrix     : Default (H.263)
Codec ID                    :
Codec ID/Hint               :
Duration                    : 2 h 19 min
Bit rate                    : 1 599 kb/s
Width                       : 720 pixels
Height                      : 304 pixels
Display aspect ratio        : 2.40:1
Frame rate                  : 30.000 FPS
Color space                 : YUV
Chroma subsampling          : 4:2:0
Bit depth                   : 8 bits
Scan type                   : Progressive
Compression mode            : Lossy
Bits/(Pixel*Frame)          : 0.244
Stream size                 : 1.56 GiB (89%)
Writing library             : Lavc58.1.100

Audio
ID                          : 1
Format                      : AC-3
Format/Info                 : Audio Coding 3
Codec ID                    : 2000
Duration                    : 2 h 19 min
Bit rate mode               : Constant
Bit rate                    : 192 kb/s
Channel(s)                  : 2 channels
Channel positions           : Front: L R
Sampling rate               : 48.0 kHz
Frame rate                  : 31.250 FPS (1536 SPF)
Bit depth                   : 16 bits
Compression mode            : Lossy
Stream size                 : 192 MiB (11%)
Alignment                   : Split accross interleaves
Interleave, duration        : 33  ms (1.00 video frame)
Interleave, preload duratio : 500  ms
Title                       : UKR DUB [Postmodern, Line]
Service kind                : Complete Main


Джерело: & &

При появі кращого аудіо/відео реліз буде оновлено (орієнтовно - кінець липня)


 Трекер:    Зареєстрований   

Завантажити / скачати фільм українською



відео для новачків



 Зареєстрований:   2018-05-12 00:06
 Розмір:   1.76 GB 
 Оцінка фільму:   9.6/10 (Голосів: 64)
   
ВсеБудеУкраїна! 
Новенький


З нами з: 04.05.18
Востаннє: 25.05.18
Повідомлень: 2

2018-05-22 22:45  
Чудовий фільм!
klm_109 
Новенький


З нами з: 23.09.17
Востаннє: 25.05.18
Повідомлень: 8

2018-05-23 11:55  
вже забув про що...на пів раза
Ваш часовий пояс: GMT + 2 Години

Нова тема   Відповісти