П'ятдесят відтінків свободи / Fifty Shades Freed (2018) Remux 1080p Ukr/Eng | Sub Eng — HD українською

П'ятдесят відтінків свободи / Fifty Shades Freed (2018) Remux 1080p Ukr/Eng | Sub Eng

Нові коментарі

Нова тема   Відповісти
Автор Повідомлення
staf777 
Попереджень: 1
Попереджень: 1 


З нами з: 16.11.16
Востаннє: 14.08.18
Повідомлень: 1368

2018-05-11 17:45  
П'ятдесят відтінків свободи / Fifty Shades Freed (2018) Remux 1080p Ukr/Eng | Sub Eng


«Отримай насолоду від фіналу»

Жанр: драма, мелодрама
Країна: США



Кінокомпанія: Universal Pictures
Режисер: Джеймс Фоулі
Актори: Дакота Джонсон, Джеймі Дорнан, Аріель Кеббел, Кім Бесінджер, Тайлер Геклін, Марша Ґей Гарден, Макс Мартіні, Ерік Джонсон, Люк Ґраймс, Каллум Кіт Ренні

Сюжет:
Крістіан й Ана тепер законне подружжя. Здавалося б, ніщо не зможе затьмарити їхнього щастя. Місіс Грей звикає до нового статусу і все краще розуміє свого чоловіка. Але з'являється хтось із його минулого, для якого головною метою стає руйнування життя Крістіана. Все те, про що герой довгі роки намагався забути, доведеться чітко згадати, щоб захистити свою любов. Почуття героїв пройдуть нову перевірку на міцність.


Тривалість: 01:45:18
Якість: Remux 1080p

Відео:
кодек:
розмір кадру: 1920x1080
бітрейт: 27,9 Mб/с

Аудіо # 1:
мова: українська
переклад: професійний дубльований | студія LeDoyen
кодек: 2.0
бітрейт: 192 кб/с

Аудіо # 2:
мова: англійська
переклад: оригінал
кодек: -HD MA 7.1
бітрейт: 3278 кб/с

Субтитри:
мова: англійська
тип: програмні (м'які)
формат: *.srt

Скріншоти


Info
Код:
General
Unique ID                   : 219481268278938113103067402629031686485 (0xA51E8DFF93C76E3A8BEAFF7DF8387155)
Complete name               : H:\Fifty Shades Freed (2018) Remux 1080p [Ukr][Eng][ Sub Eng][Hurtom].
Format                      :
Format version              : Version 4 / Version 2
File size                   : 23.1 GiB
Duration                    : 1 h 45 min
Overall bit rate mode       : Variable
Overall bit rate            : 31.4 Mb/s
Movie name                  : Fifty Shades Freed (2018) Remux 1080p [Ukr][Eng][ Sub Eng][Hurtom]
Encoded date                : UTC 2018-05-11 16:09:03
Writing application         : v9.8.0 ('Kuglblids') 64bit
Writing library             : libebml v1.3.4 + v1.4.5
Cover                       : Yes
Attachments                 : cover.jpg

Video
ID                          : 1
Format                      : AVC
Format/Info                 : Advanced Video Codec
Format profile              : [email protected]
Format settings             : CABAC / 4 Ref Frames
Format settings, CABAC      : Yes
Format settings, ReFrames   : 4 frames
Codec ID                    : V_MPEG4/ISO/AVC
Duration                    : 1 h 45 min
Bit rate mode               : Variable
Bit rate                    : 27.9 Mb/s
Maximum bit rate            : 33.0 Mb/s
Width                       : 1 920 pixels
Height                      : 1 080 pixels
Display aspect ratio        : 16:9
Frame rate mode             : Constant
Frame rate                  : 23.976 (24000/1001) FPS
Color space                 : YUV
Chroma subsampling          : 4:2:0
Bit depth                   : 8 bits
Scan type                   : Progressive
Bits/(Pixel*Frame)          : 0.561
Stream size                 : 20.5 GiB (89%)
Language                    : English
Default                     : Yes
Forced                      : No

Audio #1
ID                          : 2
Format                      : AC-3
Format/Info                 : Audio Coding 3
Codec ID                    : A_AC3
Duration                    : 1 h 45 min
Bit rate mode               : Constant
Bit rate                    : 192 kb/s
Channel(s)                  : 2 channels
Channel positions           : Front: L R
Sampling rate               : 48.0 kHz
Frame rate                  : 31.250 FPS (1536 SPF)
Bit depth                   : 16 bits
Compression mode            : Lossy
Stream size                 : 145 MiB (1%)
Title                       : [UA-DUB-LeDoyen]
Language                    : Ukrainian
Service kind                : Complete Main
Default                     : Yes
Forced                      : Yes

Audio #2
ID                          : 3
Format                      :
Format/Info                 : Digital Theater Systems
Format profile              : X / MA / Core
Codec ID                    : A_DTS
Duration                    : 1 h 45 min
Bit rate mode               : Variable / Variable / Constant
Bit rate                    : 3 278 kb/s / 3 278 kb/s / 1 509 kb/s
Channel(s)                  : Object Based / 8 channels / 6 channels
Channel positions           : Object Based / Front: L C R, Side: L R, Back: L R, LFE / Front: L C R, Side: L R, LFE
Sampling rate               :  / 48.0 kHz / 48.0 kHz
Frame rate                  : 93.750 FPS (512 SPF)
Bit depth                   :  / 24 bits / 24 bits
Compression mode            :  / Lossless / Lossy
Stream size                 : 2.41 GiB (10%)
Title                       : Original
Language                    : English
Default                     : No
Forced                      : No

Text
ID                          : 4
Format                      : UTF-8
Codec ID                    : S_TEXT/UTF8
Codec ID/Info               : UTF-8 Plain Text
Duration                    : 1 h 38 min
Bit rate                    : 47 b/s
Count of elements           : 1118
Stream size                 : 34.4 KiB (0%)
Title                       : Full
Language                    : English
Default                     : No
Forced                      : No

Menu
00:00:00.000                : en:00:00:00.000
00:05:12.479                : en:00:05:12.479
00:12:02.930                : en:00:12:02.930
00:19:40.137                : en:00:19:40.137
00:24:31.428                : en:00:24:31.428
00:28:19.114                : en:00:28:19.114
00:31:54.996                : en:00:31:54.996
00:36:46.913                : en:00:36:46.913
00:41:04.754                : en:00:41:04.754
00:46:54.228                : en:00:46:54.228
00:50:33.364                : en:00:50:33.364
00:54:58.545                : en:00:54:58.545
00:58:39.808                : en:00:58:39.808
01:04:12.891                : en:01:04:12.891
01:11:03.050                : en:01:11:03.050
01:16:51.732                : en:01:16:51.732
01:23:55.906                : en:01:23:55.906
01:28:58.249                : en:01:28:58.249
01:33:16.049                : en:01:33:16.049
01:39:05.398                : en:01:39:05.398


За доріжку подяка пану Covenant.

Джерело: &
Особиста оцінка: 0 - не дивився


Золотий реліз (завантажене не впливає на рейтинг)
 Трекер:    Зареєстрований   

Завантажити / скачати фільм українською



відео для новачків



 Зареєстрований:   2018-05-11 20:01
 Розмір:   23.09 GB 
 Оцінка фільму:   4.8/10 (Голосів: 4)
   
molinski 
Частий відвідувач


З нами з: 04.09.12
Востаннє: 11.08.18
Повідомлень: 44

2018-05-11 20:17  
Питання до знавців і тих, хто переглянув. Кгм, тема розкрита?
Ваш часовий пояс: GMT + 2 Години

Нова тема   Відповісти