День незалежності / Independence Day (1996) 2xUkr [Remastered TC]

Нові коментарі

Нова тема   Відповісти
Автор Повідомлення
21jumpstreet 
VIP


З нами з: 03.07.12
Востаннє: 10.12.19
Повідомлень: 721

2018-05-11 16:22  
День незалежності / Independence Day (1996) 2xUkr [Remastered TC]

День незалежності / Independence Day (1996) 2xUkr [Remastered TC]


Жанр: екшн, пригодницький, фантастика, трилер
Країна: США



Кінокомпанія: Centropolis Entertainment, Twentieth Century Fox Film Corporation
Режисер: Роланд Еммеріх / Roland Emmerich
Актори: Вілл Сміт / Will Smith, Біл Пулман / Bill Pullman, Джеф Ґолдблюм / Jeff Goldblum, Mary McDonnell / Mary McDonnell, Джудд Хірш / Judd Hirsch, Роберт Лоджа / Robert Loggia, Ренді Куейд / Randy Quaid, Маргарет Колін / Margaret Colin, Вівіка А. Фокс / Vivica A. Fox, Джеймс Ребхорн / James Rebhorn, Харві Фірстейн / Harvey Fierstein, Адам Болдуїн / Adam Baldwin, Брент Спайнер / Brent Spiner, Джеймс Дювал / James Duval, Ліза Джакуб / Lisa Jakub

Сюжет:
На Землі приймається сигнал, надісланий джерелом явно неземного походження. Джерело це наближається, і на «вуха» піднімається вся планета. Ніхто, правда, не чекав, що інопланетяни виявляться такими величезними і в такій кількості.


Тривалість: 02:24:48 [Remastered Theatrical Cut - ремастерована театральна версія]
Якість:
Відео:
кодек:
розмір кадру: 688 х 288
бітрейт: 1241 кб/с

Аудіо # 1:
мова: українська
переклад: двоголосий закадровий ,
кодек: 2.0
бітрейт: 192 кб/с

Аудіо # 2:
мова: українська
переклад: двоголосий закадровий
кодек: 2.0
бітрейт: 192 кб/с
Info:
C:\Users\Admin\Downloads\The independence day (1996) [2xUkr] [Remastered TC] [Hurtom].avi
General
Complete name : C:\Users\Admin\Downloads\The independence day (1996) [2xUkr] [Remastered TC] [Hurtom].avi
Format : AVI
Format/Info : Audio Video Interleave
File size : 1.66 GiB
Duration : 2 h 24 min
Overall bit rate : 1 639 kb/s
Writing application : VirtualDubMod 1.5.10.2 (build 2540/release)
Writing library : VirtualDubMod build 2540/release
Video #0
ID : 0
Format : MPEG-4 Visual
Format profile : Advanced [email protected]
Format settings, BVOP : 1
Format settings, QPel : No
Format settings, GMC : No warppoints
Format settings, Matrix : Custom
Codec ID :
Codec ID/Hint :
Duration : 2 h 24 min
Bit rate : 1 241 kb/s
Width : 688 pixels
Height : 288 pixels
Display aspect ratio : 2.40:1
Frame rate : 23.976 (23976/1000) FPS
Color space : YUV
Chroma subsampling : 4:2:0
Bit depth : 8 bits
Scan type : Progressive
Compression mode : Lossy
Bits/(Pixel*Frame) : 0.261
Stream size : 1.25 GiB (76%)
Writing library : 67
Audio #1
ID : 1
Format : AC-3
Format/Info : Audio Coding 3
Mode extension : CM (complete main)
Format settings, Endianness : Big
Codec ID : 2000
Duration : 2 h 24 min
Bit rate mode : Constant
Bit rate : 192 kb/s
Channel(s) : 2 channels
Channel positions : Front: L R
Sampling rate : 48.0 kHz
Frame rate : 31.250 FPS (1536 spf)
Compression mode : Lossy
Stream size : 199 MiB (12%)
Alignment : Split accross interleaves
Interleave, duration : 42 ms (1.00 video frame)
Interleave, preload duration : 500 ms
Audio #2
ID : 2
Format : AC-3
Format/Info : Audio Coding 3
Mode extension : CM (complete main)
Format settings, Endianness : Big
Codec ID : 2000
Duration : 2 h 24 min
Bit rate mode : Constant
Bit rate : 192 kb/s
Channel(s) : 2 channels
Channel positions : Front: L R
Sampling rate : 48.0 kHz
Frame rate : 31.250 FPS (1536 spf)
Compression mode : Lossy
Stream size : 199 MiB (12%)
Alignment : Split accross interleaves
Interleave, duration : 42 ms (1.00 video frame)
Interleave, preload duration : 500 ms[/code]
Скріншоти:




Величезні подяки:
1 доріжка - запис - Xslim, зведення - karvai0
2 доріжка - запис - drakon87, зведення - karvai0

Джерело: &
Особиста оцінка: 10 - без зайвих вагань рекомендую всім!





Срібний реліз (на рейтинг впливає 50% завантаженого)
 Трекер:    Зареєстрований   

Завантажити / скачати фільм українською



відео для новачків



 Зареєстрований:   2018-05-11 17:01
 Розмір:   1.66 GB 
 Оцінка фільму:   9.4/10 (Голосів: 21)
   
Arsenfpu 
Відео Гуртом - фільмокрай
Відео Гуртом - фільмокрай


З нами з: 30.04.09
Востаннє: 10.12.19
Повідомлень: 6294

2018-05-11 19:57  
Вибачте, а чого така картинка хрінова?
21jumpstreet 
VIP


З нами з: 03.07.12
Востаннє: 10.12.19
Повідомлень: 721

2018-05-11 19:59  
Arsenfpu
Певно такий ремастер, або бітрейт малий.

Arsenfpu 
Відео Гуртом - фільмокрай
Відео Гуртом - фільмокрай


З нами з: 30.04.09
Востаннє: 10.12.19
Повідомлень: 6294

2018-05-11 20:03  
21jumpstreet
Тоді сенс у цьому?

21jumpstreet 
VIP


З нами з: 03.07.12
Востаннє: 10.12.19
Повідомлень: 721

2018-05-11 20:24  
Arsenfpu
Як на мене картинка непогана.

Nahalist 
Поважний учасник


З нами з: 12.12.13
Востаннє: 10.12.19
Повідомлень: 214

2019-06-12 11:28  
по перше картинка для кінескопних телевізорів, по друге тут точно всіх мужиків ОДИН озвучує??? І по третє: режисерська не планується??
igor911 
Модератор відео


З нами з: 18.01.08
Востаннє: 10.12.19
Повідомлень: 13723

2019-06-12 12:37  
Nahalist написано:
тут точно всіх мужиків ОДИН озвучує

Віктор написано:
Про озвучення записане з ТЕТ
Ролі озвучили: Олександр Завальський і Тетяна Антонова?
Про озвучення записане з ICTV
Ролі озвучили: Олег Лепенець і Людмила Ардельян

Blanove 
Свій


З нами з: 01.05.15
Востаннє: 04.12.19
Повідомлень: 127

2019-06-12 19:51  
Nahalist, я точно колись дивився з багатоголоскою та не пам'ятаю який був канал тоді. Може К1, може НЛО чи ТРК Україна, пес його знає.
Pegass 
VIP


З нами з: 17.12.09
Востаннє: 10.12.19
Повідомлень: 1052

2019-09-07 21:10  
21jumpstreet написано:

Аудіо # 1:
мова: українська
переклад: двоголосий закадровий , ТЕТ, 1+1
кодек: 2.0
бітрейт: 192 кб/с

2+2 транслював із ідентичною озвучкою.

Ваш часовий пояс: GMT + 2 Години

Нова тема   Відповісти