Євробачення 2018. Другий півфінал / Eurovision 2018. Second Semi-Final (10.05.2018) 1080p 2xUkr

Нові коментарі

Нова тема   Відповісти
Автор Повідомлення
sergiyko.5 
VIP


З нами з: 25.02.16
Востаннє: 22.09.19
Повідомлень: 2588

2018-05-11 11:40  
Євробачення 2018. Другий півфінал / Eurovision 2018. Second Semi-Final (10.05.2018) 1080p 2xUkr


Євробачення 2018. Другий півфінал / Eurovision 2018. Second Semi-Final (10.05.2018) 1080p 2xUkr

Жанр: Пісенний конкурс
Країна: Португалія
Телеканал: UA Перший, СТБ
Коментатори: Тімур Мірошниченко та Alyosha, Сергій Притула

Опис:
Другий півфінал Євробачення-2018 відбувся у Лісабоні у четвер, 10 травня о 22:00 годині за київським часом.

За місце у фіналі конкурсу поборолись виконавці з 18 країн.


Треклист:
01 Норвегія: Alexander Rybak - That'S How You Write А Song
02 Румунія: The Humans - Goodbye
03 Сербія: Sanja Ilić & Balkanika - Nova deca
04 Сан-Марино: Jessika (feat. Jenifer Brening) - Who We Are
05 Данія: Rasmussen - Higher Ground
06 Росія: Julia Samoylova - I Will not Break
07 Молдова: DoReDos - My Lucky Day
08 Нідерланди: Waylon - Outlaw in 'Em
09 Австралія: Jessica Mauboy - We Got Love
10 Грузія: Iriao - Sheni Gulistvis
11 Польща: Gromee feat. Lukas Meijer - Light Me Up
12 Мальта: Christabelle - Taboo
13 Угорщина: AWS - Viszlát nyár
14 Латвія: Laura Rizzotto - Funny Girl
15 Швеція: Benjamin Ingrosso - Dance You Off
16 Чорногорія: Vanja Radovanovic - Inje
17 Словенія: Lea Sirk - Hvala, ne!
18 Україна: MELOVIN - Under the Ladder

Тривалість: 02:01:42
Якість:

Відео: кодек: розмір кадру: 1920 х 1080 бітрейт: 4510 кб/с
Аудіо: мова: українська кодек: 2.0 бітрейт: 192 кб/с UA Перший
Аудіо: мова: українська кодек: 2.0 бітрейт: 192 кб/с СТБ
Про файл:
General
Unique ID : 262223025723522629460265392680668478092 (0xC546515712A3C819FAC57BBD320BBA8C)
Complete name : F:\Content\Videomusic\Eurovision Song Contest.2018.Second Semi-Final.1080p.Live Stream.
Format :
Format version : Version 4 / Version 2
File size : 4.17 GiB
Duration : 2 h 1 min
Overall bit rate : 4 904 kb/s
Movie name : Eurovision Song Contest 2018. Second Semi-Final 1080p Live Stream by sergiyko
Encoded date : UTC 2018-05-11 08:33:46
Writing application : v23.0.0 ('The Bride Said No') 64-bit
Writing library : libebml v1.3.6 + v1.4.9

Video
ID : 1
Format : AVC
Format/Info : Advanced Video Codec
Format profile : [email protected]
Format settings, CABAC : Yes
Format settings, ReFrames : 1 frame
Codec ID : V_MPEG4/ISO/AVC
Duration : 2 h 1 min
Bit rate : 4 517 kb/s
Width : 1 920 pixels
Height : 1 080 pixels
Display aspect ratio : 16:9
Frame rate mode : Constant
Frame rate : 30.000 FPS
Color space : YUV
Chroma subsampling : 4:2:0
Bit depth : 8 bits
Scan type : Progressive
Bits/(Pixel*Frame) : 0.073
Stream size : 3.84 GiB (92%)
Title : Eurovision Song Contest 2018. Second Semi-Final
Language : English
Default : Yes
Forced : No
Color range : Limited
Color primaries : BT.709
Transfer characteristics : BT.709
Matrix coefficients : BT.709

Audio #1
ID : 2
Format : AC-3
Format/Info : Audio Coding 3
Mode extension : CM (complete main)
Format settings, Endianness : Big
Codec ID : A_AC3
Duration : 2 h 1 min
Bit rate mode : Constant
Bit rate : 192 kb/s
Channel(s) : 2 channels
Channel positions : Front: L R
Sampling rate : 48.0 kHz
Frame rate : 31.250 FPS (1536 spf)
Bit depth : 16 bits
Compression mode : Lossy
Stream size : 167 MiB (4%)
Title : UA Перший | Тімур Мірошниченко та Alyosha
Language : Ukrainian
Default : Yes
Forced : No

Audio #2
ID : 3
Format : AC-3
Format/Info : Audio Coding 3
Mode extension : CM (complete main)
Format settings, Endianness : Big
Codec ID : A_AC3
Duration : 2 h 1 min
Bit rate mode : Constant
Bit rate : 192 kb/s
Channel(s) : 2 channels
Channel positions : Front: L R
Sampling rate : 48.0 kHz
Frame rate : 31.250 FPS (1536 spf)
Bit depth : 16 bits
Compression mode : Lossy
Stream size : 167 MiB (4%)
Title : СТБ | Сергій Притула
Language : Ukrainian
Default : No
Forced : No
Скріншоти:


Зведення: sergiyko


 Трекер:    Зареєстрований   

Завантажити / скачати передачу українською



відео для новачків



 Зареєстрований:   2018-05-11 11:40
 Розмір:   4.17 GB 
 Оцінка передачі:   10/10 (Голосів: 11)
   
lika28 
Новенький


З нами з: 15.03.09
Востаннє: 11.05.18
Повідомлень: 2

2018-05-11 16:35  
Дякую за роздачу.

Єдине питання, бо не зовсім розумію -
Аудіо: мова: українська кодек: 2.0 бітрейт: 192 кб/с UA Перший
Аудіо: мова: українська кодек: 2.0 бітрейт: 192 кб/с СТБ

скажіть будь ласка, дана роздача з коментарями Притули?

Electroz 
Відео Гуртом - підтримка та поширення
Відео Гуртом - підтримка та поширення


З нами з: 18.09.14
Востаннє: 22.09.19
Повідомлень: 3583

2018-05-11 16:37  
lika28 написано:
дана роздача з коментарями Притули?

Притула присутній в доріжці від СТБ.

lika28 
Новенький


З нами з: 15.03.09
Востаннє: 11.05.18
Повідомлень: 2

2018-05-11 16:40  
Electroz
дякую, зараз докачаю, подивимось Happy

DarkLan 
Новенький


З нами з: 14.11.12
Востаннє: 20.09.19
Повідомлень: 19

2018-05-12 04:52  
Дякую! +
sabretus 
Новенький


З нами з: 28.12.10
Востаннє: 15.09.19
Повідомлень: 15

2018-05-12 14:13  
Качав заради Притули)))
Ваш часовий пояс: GMT + 2 Години

Нова тема   Відповісти