Титан / The Titan (2018) Remux 1080p Ukr/Eng | Sub Eng

Нові коментарі

Нова тема   Відповісти
Автор Повідомлення
staf777 
Попереджень: 1
Попереджень: 1 


З нами з: 16.11.16
Востаннє: 23.05.18
Повідомлень: 1019

2018-05-11 08:56  
Титан / The Titan (2018) Remux 1080p Ukr/Eng | Sub Eng


«Надлюдина або чужий?»



Жанр: фантастика
Країна: Велика Британія, Іспанія, США



Кінокомпанія: 42, Amel Company, The, Motion Picture Capital
Режисер: Леннарт Рафф
Актори: Сем Вортінгтон, Тейлор Шиллінг, Том Вілкінсон, Агнесс Дейн, Наталі Еммануель, Корі Джонсон, Олександр Йованович, Аарон Хеффернан, Наталі Поса, Стівен Крі

Сюжет:
Американський військовий Рік приїжджає на британську базу для участі в науковому експерименті. Тут намагаються шляхом генної інженерії створити новий вид людей, які після можливо швидкої екологічної катастрофи на Землі будуть здатні жити на планеті Титан. Однак цей амбітний проект по створенню надлюдини призводить до зовсім непередбачуваних наслідків.


Тривалість: 01:37:17
Якість: Remux 1080p

Відео:
кодек:
розмір кадру: 1920x1080
бітрейт: 33,4 Mб/с

Аудіо # 1:
мова: українська
переклад: професійний дубльований | студія Tretyakoff Production
кодек: 2.0
бітрейт: 192 кб/с

Аудіо # 2:
мова: англійська
переклад: оригінал
кодек: -HD MA 5.1
бітрейт: 3840 кб/с

Субтитри #1-2:
мова: англійська
тип: програмні (м'які)
формат: *.srt

Скріншоти



Info
Код:
General
Unique ID                   : 244592297572209284429721811997481202744 (0xB802C3545DCC7FECA1E553FD858F7438)
Complete name               : H:\Майбутні релізи\The Titan (2018) Remux 1080p [Ukr][Eng][ Sub Eng][Hurtom].
Format                      :
Format version              : Version 4 / Version 2
File size                   : 25.5 GiB
Duration                    : 1 h 37 min
Overall bit rate mode       : Variable
Overall bit rate            : 37.4 Mb/s
Movie name                  : The Titan (2018) Remux 1080p [Ukr][Eng][ Sub Eng][Hurtom]
Encoded date                : UTC 2018-05-11 14:56:15
Writing application         : v9.8.0 ('Kuglblids') 64bit
Writing library             : libebml v1.3.4 + v1.4.5
Cover                       : Yes
Attachments                 : cover.jpg

Video
ID                          : 1
Format                      : AVC
Format/Info                 : Advanced Video Codec
Format profile              : [email protected]
Format settings             : CABAC / 4 Ref Frames
Format settings, CABAC      : Yes
Format settings, ReFrames   : 4 frames
Codec ID                    : V_MPEG4/ISO/AVC
Duration                    : 1 h 37 min
Bit rate mode               : Variable
Bit rate                    : 33.4 Mb/s
Maximum bit rate            : 37.0 Mb/s
Width                       : 1 920 pixels
Height                      : 1 080 pixels
Display aspect ratio        : 16:9
Frame rate mode             : Constant
Frame rate                  : 24.000 FPS
Color space                 : YUV
Chroma subsampling          : 4:2:0
Bit depth                   : 8 bits
Scan type                   : Progressive
Bits/(Pixel*Frame)          : 0.672
Stream size                 : 22.7 GiB (89%)
Language                    : English
Default                     : No
Forced                      : No

Audio #1
ID                          : 2
Format                      : AC-3
Format/Info                 : Audio Coding 3
Codec ID                    : A_AC3
Duration                    : 1 h 37 min
Bit rate mode               : Constant
Bit rate                    : 192 kb/s
Channel(s)                  : 2 channels
Channel positions           : Front: L R
Sampling rate               : 48.0 kHz
Frame rate                  : 31.250 FPS (1536 SPF)
Bit depth                   : 16 bits
Compression mode            : Lossy
Stream size                 : 134 MiB (1%)
Title                       : [Ua-Dub-Tretyakoff Production]
Language                    : Ukrainian
Service kind                : Complete Main
Default                     : Yes
Forced                      : Yes

Audio #2
ID                          : 3
Format                      :
Format/Info                 : Digital Theater Systems
Format profile              : MA / Core
Codec ID                    : A_DTS
Duration                    : 1 h 37 min
Bit rate mode               : Variable / Constant
Bit rate                    : 3 840 kb/s / 1 509 kb/s
Channel(s)                  : 6 channels
Channel positions           : Front: L C R, Side: L R, LFE
Sampling rate               : 48.0 kHz
Frame rate                  : 93.750 FPS (512 SPF)
Bit depth                   : 24 bits
Compression mode            : Lossless / Lossy
Stream size                 : 2.58 GiB (10%)
Title                       : Original
Language                    : English
Default                     : No
Forced                      : No

Text #1
ID                          : 4
Format                      : UTF-8
Codec ID                    : S_TEXT/UTF8
Codec ID/Info               : UTF-8 Plain Text
Duration                    : 1 h 27 min
Bit rate                    : 30 b/s
Count of elements           : 718
Stream size                 : 19.7 KiB (0%)
Title                       : full
Language                    : English
Default                     : No
Forced                      : No

Text #2
ID                          : 5
Format                      : UTF-8
Codec ID                    : S_TEXT/UTF8
Codec ID/Info               : UTF-8 Plain Text
Duration                    : 1 h 34 min
Bit rate                    : 37 b/s
Count of elements           : 979
Stream size                 : 26.0 KiB (0%)
Title                       : SDH
Language                    : English
Default                     : No
Forced                      : No

Menu
00:00:00.000                : en:00:00:00.000
00:08:09.542                : en:00:08:09.542
00:17:13.875                : en:00:17:13.875
00:26:26.833                : en:00:26:26.833
00:34:24.000                : en:00:34:24.000
00:41:54.750                : en:00:41:54.750
00:49:07.667                : en:00:49:07.667
00:58:29.292                : en:00:58:29.292
01:05:34.083                : en:01:05:34.083
01:13:52.292                : en:01:13:52.292
01:23:17.917                : en:01:23:17.917
01:31:54.250                : en:01:31:54.250
За придбану доріжку подяка Гуртомівцю, синхронізація Electroz.
Джерело:
Особиста оцінка: 0 - не дивився


Золотий реліз (завантажене не впливає на рейтинг)
 Трекер:    Зареєстрований   

Завантажити / скачати фільм українською



відео для новачків



 Зареєстрований:   2018-05-11 18:41
 Розмір:   25.45 GB 
 Оцінка фільму:   6.5/10 (Голосів: 17)
   
Інші релізи
   Титан / The Titan (2018) AVC Ukr/Eng | Sub Eng 11FrYkT  82 / 0   1.59 GB   2018-05-11 17:40 
   Титан / The Titan (2018) 1080p Ukr/Eng | Sub Eng staf777  49 / 0   8.63 GB   2018-05-11 17:39 
   Титан / The Titan (2018) 720p Ukr/Eng | Sub Eng 11FrYkT  47 / 1   4.51 GB   2018-05-11 17:39 
   Титан / The Titan (2018) Ukr/Eng Electroz  130 / 2   1.41 GB   2018-05-11 15:20 
bot 
робот


З нами з: 30.09.07
Востаннє: 26.05.05
Повідомлень: 18920

2018-05-11 18:41  
Тему перенесено з Анонси релізів до форуму Фільми в HD


staf777

Victor_Scythian 
Поважний учасник


З нами з: 06.01.17
Востаннє: 23.05.18
Повідомлень: 173

2018-05-11 19:21  
Рейтинг 4,9. Навіщо витрачати сили?
EvGaS 
Відео Гуртом - субтитрування
Відео Гуртом - субтитрування


З нами з: 27.02.12
Востаннє: 24.05.18
Повідомлень: 4730

2018-05-11 19:45  
Victor_Scythian написано:
Рейтинг 4,9. Навіщо витрачати сили?

Бо люди віддають перевагу дивитись щось нове, а не добре.

kryk-v.ya. 
VIP


З нами з: 14.02.14
Востаннє: 24.05.18
Повідомлень: 380

2018-05-11 21:46  
EvGaS написано:
люди віддають перевагу дивитись щось нове, а не добре.

не всі...

vash1 
Свій


З нами з: 16.03.16
Востаннє: 22.05.18
Повідомлень: 101

2018-05-14 11:49  
Цитата:
Бо люди віддають перевагу дивитись щось нове, а не добре.


Глибока думка...

Vodo4kin 
Новенький


З нами з: 10.06.15
Востаннє: 15.05.18
Повідомлень: 14

2018-05-14 23:03  
Чи вартий для перегляду???
NAZARIJ007 
Частий відвідувач


З нами з: 06.06.12
Востаннє: 24.05.18
Повідомлень: 31

2018-05-15 00:34  
фільм жахливий!!! я ніколи не пишу коменти, але це просто жах
і я невибагливий до фільмів, дивлюсь прикольні фільмт щоб розслабитись після роботи
черепашки ніндзя набагато кращий фільм хоч він має низькі рейтинги і жахливих персонажів

Просто жахіття!

vitalikfv 
Новенький


З нами з: 29.12.13
Востаннє: 23.05.18
Повідомлень: 15

2018-05-17 03:14  
Фільм дуже крутий, сподобався дуже! Філософський, глибокий, фантастичний і реальний водночас, гарно знятий і зроблений. Але не рекомендую для перегляду любителям Черепашок Ніндзя, бо до такого фільму треба дорости і як мінімум мати сім'ю та дитину.
Можу додати, що можливо цей фільм не для сімейного перегляду, але дорослим батькам і взагалі дорослим, раджу однозначно!
Мої 10 з 10!

SAKSAGANSKY 
Частий відвідувач


З нами з: 13.05.14
Востаннє: 24.05.18
Повідомлень: 40

2018-05-19 10:56  
Бачу з постером не заморочувались та зробили в стилі "Аватара" Wide grin
exitvray 
Частий відвідувач


З нами з: 17.02.13
Востаннє: 24.05.18
Повідомлень: 36

2018-05-22 00:46  
Коротше-жесть,купа нелогіних речей-точніше ВАГОН,починаючи з "еволюції" (та й біології в цілому) ,закінчуючи емоціями і відношенням всіх і до всього.
Коли він полетів-взагалі заржав))) (до Кларка Кента чи Хенкока в мене претензій немає-бо там це відповідно подано,але тут цей момент в кінці був абсолютно лишній)
6/10

ВАВУНЯ 
Поважний учасник


З нами з: 30.06.15
Востаннє: 24.05.18
Повідомлень: 203

2018-05-22 11:17  
exitvray, дякую, що розповіли чим закінчиться "Титан". тепер цікавіше буде завантажувати і дивитись цю стрічку. будь ласка, додайте ще якихось подробиць. дякую.
Ваш часовий пояс: GMT + 2 Години

Нова тема   Відповісти