Титан / The Titan (2018) 1080p Ukr/Eng | Sub Eng — HD українською

Титан / The Titan (2018) 1080p Ukr/Eng | Sub Eng

Нові коментарі

Нова тема   Відповісти
Автор Повідомлення
staf777 
Попереджень: 1
Попереджень: 1 


З нами з: 16.11.16
Востаннє: 15.08.18
Повідомлень: 1372

2018-05-10 21:15  
Титан / The Titan (2018) 1080p Ukr/Eng | Sub Eng


«Надлюдина або чужий?»



Жанр: фантастика
Країна: Велика Британія, Іспанія, США



Кінокомпанія: 42, Amel Company, The, Motion Picture Capital
Режисер: Леннарт Рафф
Актори: Сем Вортінгтон, Тейлор Шиллінг, Том Уілкінсон, Агнесс Дейн, Наталі Еммануель, Корі Джонсон, Олександр Йованович, Аарон Хеффернан, Наталі Поса, Стівен Крі

Сюжет:
Американський військовий Рік приїжджає на британську базу для участі в науковому експерименті. Тут намагаються шляхом генної інженерії створити новий вид людей, які після можливо швидкої екологічної катастрофи на Землі будуть здатні жити на планеті Титан. Однак цей амбітний проект по створенню надлюдини призводить до зовсім непередбачуваних наслідків.


Тривалість: 01:37:17
Якість: 1080p

Відео:
кодек:
розмір кадру: 1920x804
бітрейт: 11.9 Mб/с

Аудіо # 1:
мова: українська
переклад: професійний дубльований | студія Tretyakoff Production
кодек: 2.0
бітрейт: 192 кб/с

Аудіо # 2:
мова: англійська
переклад: оригінал
кодек: 5.1
бітрейт: 640 кб/с

Субтитри # 1-2:
мова: англійська
тип: програмні (м'які)
формат: *.srt
Скріншоти



Info
Код:
General
Unique ID                   : 243020103832149720367055416140363223238 (0xB6D3F83188F1FE72BB106737308850C6)
Complete name               : H:\Майбутні релізи\The Titan (2018) 1080p [Ukr][Eng][ Sub Eng][Hurtom].
Format                      :
Format version              : Version 4 / Version 2
File size                   : 8.63 GiB
Duration                    : 1 h 37 min
Overall bit rate            : 12.7 Mb/s
Movie name                  : The Titan (2018) 1080p [Ukr][Eng][ Sub Eng][Hurtom]
Encoded date                : UTC 2018-05-11 14:14:29
Writing application         : v9.8.0 ('Kuglblids') 64bit
Writing library             : libebml v1.3.4 + v1.4.5
Cover                       : Yes
Attachments                 : cover.jpg

Video
ID                          : 1
Format                      : AVC
Format/Info                 : Advanced Video Codec
Format profile              : [email protected]
Format settings             : CABAC / 5 Ref Frames
Format settings, CABAC      : Yes
Format settings, ReFrames   : 5 frames
Codec ID                    : V_MPEG4/ISO/AVC
Duration                    : 1 h 37 min
Bit rate                    : 11.9 Mb/s
Width                       : 1 920 pixels
Height                      : 804 pixels
Display aspect ratio        : 2.40:1
Frame rate mode             : Constant
Frame rate                  : 24.000 FPS
Color space                 : YUV
Chroma subsampling          : 4:2:0
Bit depth                   : 8 bits
Scan type                   : Progressive
Bits/(Pixel*Frame)          : 0.321
Stream size                 : 8.07 GiB (93%)
Writing library             : core 148 r2705 3f5ed56
Encoding settings           : cabac=1 / ref=5 / deblock=1:-2:-2 / analyse=0x3:0x133 / me=umh / subme=10 / psy=1 / psy_rd=1.05:0.05 / mixed_ref=1 / me_range=32 / chroma_me=1 / trellis=2 / 8x8dct=1 / cqm=0 / deadzone=21,11 / fast_pskip=0 / chroma_qp_offset=-3 / threads=12 / lookahead_threads=2 / sliced_threads=0 / nr=0 / decimate=0 / interlaced=0 / bluray_compat=0 / constrained_intra=0 / bframes=8 / b_pyramid=2 / b_adapt=2 / b_bias=0 / direct=3 / weightb=1 / open_gop=0 / weightp=2 / keyint=240 / keyint_min=24 / scenecut=40 / intra_refresh=0 / rc_lookahead=50 / rc=2pass / mbtree=0 / bitrate=11879 / ratetol=1.0 / qcomp=0.60 / qpmin=0 / qpmax=51 / qpstep=4 / cplxblur=20.0 / qblur=0.5 / vbv_maxrate=50000 / vbv_bufsize=62500 / nal_hrd=none / filler=0 / ip_ratio=1.40 / pb_ratio=1.30 / aq=3:0.80
Language                    : English
Default                     : Yes
Forced                      : No

Audio #1
ID                          : 2
Format                      : AC-3
Format/Info                 : Audio Coding 3
Codec ID                    : A_AC3
Duration                    : 1 h 37 min
Bit rate mode               : Constant
Bit rate                    : 192 kb/s
Channel(s)                  : 2 channels
Channel positions           : Front: L R
Sampling rate               : 48.0 kHz
Frame rate                  : 31.250 FPS (1536 SPF)
Bit depth                   : 16 bits
Compression mode            : Lossy
Stream size                 : 134 MiB (2%)
Title                       : [Ua-Dub-Tretyakoff Production]
Language                    : Ukrainian
Service kind                : Complete Main
Default                     : Yes
Forced                      : Yes

Audio #2
ID                          : 3
Format                      : AC-3
Format/Info                 : Audio Coding 3
Codec ID                    : A_AC3
Duration                    : 1 h 37 min
Bit rate mode               : Constant
Bit rate                    : 640 kb/s
Channel(s)                  : 6 channels
Channel positions           : Front: L C R, Side: L R, LFE
Sampling rate               : 48.0 kHz
Frame rate                  : 31.250 FPS (1536 SPF)
Bit depth                   : 16 bits
Compression mode            : Lossy
Stream size                 : 445 MiB (5%)
Title                       : Original
Language                    : English
Service kind                : Complete Main
Default                     : No
Forced                      : No

Text #1
ID                          : 4
Format                      : UTF-8
Codec ID                    : S_TEXT/UTF8
Codec ID/Info               : UTF-8 Plain Text
Duration                    : 1 h 27 min
Bit rate                    : 30 b/s
Count of elements           : 718
Stream size                 : 19.7 KiB (0%)
Title                       : full
Language                    : English
Default                     : No
Forced                      : No

Text #2
ID                          : 5
Format                      : UTF-8
Codec ID                    : S_TEXT/UTF8
Codec ID/Info               : UTF-8 Plain Text
Duration                    : 1 h 34 min
Bit rate                    : 37 b/s
Count of elements           : 979
Stream size                 : 26.0 KiB (0%)
Title                       : SDH
Language                    : English
Default                     : No
Forced                      : No

Menu
00:00:00.000                : en:00:00:00.000
00:08:09.542                : en:00:08:09.542
00:17:13.875                : en:00:17:13.875
00:26:26.833                : en:00:26:26.833
00:34:24.000                : en:00:34:24.000
00:41:54.750                : en:00:41:54.750
00:49:07.667                : en:00:49:07.667
00:58:29.292                : en:00:58:29.292
01:05:34.083                : en:01:05:34.083
01:13:52.292                : en:01:13:52.292
01:23:17.917                : en:01:23:17.917
01:31:54.250                : en:01:31:54.250

За придбану доріжку подяка Гуртомівцю, синхронізація Electroz.
Джерело:
Особиста оцінка: 0 - не дивився


 Трекер:    Зареєстрований   

Завантажити / скачати фільм українською



відео для новачків



 Зареєстрований:   2018-05-11 17:39
 Розмір:   8.63 GB 
 Оцінка фільму:   7.4/10 (Голосів: 21)
   
Інші релізи
   Титан / The Titan (2018) Remux 1080p Ukr/Eng | Sub Eng staf777  9 / 0   25.45 GB   2018-05-11 18:41 
   Титан / The Titan (2018) AVC Ukr/Eng | Sub Eng 11FrYkT  31 / 0   1.59 GB   2018-05-11 17:40 
   Титан / The Titan (2018) 720p Ukr/Eng | Sub Eng 11FrYkT  28 / 0   4.51 GB   2018-05-11 17:39 
   Титан / The Titan (2018) Ukr/Eng Electroz  59 / 0   1.41 GB   2018-05-11 15:20 
bot 
робот


З нами з: 30.09.07
Востаннє: 26.05.05
Повідомлень: 19584

2018-05-11 17:39  
Тему перенесено з Анонси релізів до форуму Фільми в HD


staf777

KeryaS 
Свій


З нами з: 01.09.14
Востаннє: 15.08.18
Повідомлень: 82

2018-05-12 00:58  
Фільм занадто повільний і прісний. Не сказав би що він не вартий перегляду, але треба бути готовим, що тут дуже довго запрягають і зовсім не далеко їдуть)
tv2000 
Новенький


З нами з: 06.11.17
Востаннє: 24.07.18
Повідомлень: 2

2018-05-19 08:55  
Пів фільму чекаєш чогось по сюжету і ніби все ок... але потм БАЦ!!! І починається нелогічний і дешевий треш. Не буду таке роздавати.
Ваш часовий пояс: GMT + 2 Години

Нова тема   Відповісти