Довірся чоловіку / Trust the Man (2005) 720p Ukr/Eng | sub Eng

Нові коментарі

Нова тема   Відповісти
Автор Повідомлення
Anonymous 







2018-05-10 18:19  
Довірся чоловіку / Trust the Man (2005) 720p Ukr/Eng | sub Eng

Довірся чоловіку / Trust the Man (2005) 720p Ukr/Eng | sub Eng


Жанр: комедія, драма, романтичний
Країна: США



Кінокомпанія: Sidney Kimmel Entertainment, Process Media, Trust the Man LLC
Режисер: Барт Френдліх
Актори: Девід Духовний, Джуліанна Мур, Біллі Крудап, Меггі Джілленхал, Єва Мендес, Еллен Баркін, Джастін Барта

Сюжет:
Дві подружні пари, дві історії кохання і повне розчарування в ньому. Жінки вийшли на пошуки нових емоцій, а чоловіки задумалися, як зберегти старі почуття. Виявляється, чоловіки теж уміють плакати. Але не тільки. Вони можуть і діяти! Напевно кинуті чоловіки що-небудь та придумають, щоб повернути коханих жінок.


Тривалість: 01:39:30
Якість:
Відео:
кодек:
розмір кадру: 1280 х 720
бітрейт: 5 522 кб/с

Аудіо # 1: ,
мова: українська
переклад: багатоголосий закадровий
кодек: 5.1
бітрейт: 448 кб/с

Аудіо # 2:
мова: англійська
переклад: оригінал
кодек: 5.1
бітрейт: 448 кб/с

Субтитри:
мова: англійська
тип: програмні (м'які)
формат: *.srt
Info
General
Unique ID : 126828064932150131628281807891927381049 (0x5F6A3261C1C31D3D21727581606BB439)
Complete name : E:\films\Trust The Man (2005) 720p [ukr.eng] Hurtom.
Format :
Format version : Version 4 / Version 2
File size : 4.56 GiB
Duration : 2 h 9 min
Overall bit rate : 5 034 kb/s
Movie name : Trust The Man (2005) 720p [ukr.eng] Hurtom
Encoded date : UTC 2018-05-10 15:30:11
Writing application : v21.0.0 ('Tardigrades Will Inherit The Earth') 64-bit
Writing library : libebml v1.3.5 + v1.4.8

Video
ID : 1
Format : AVC
Format/Info : Advanced Video Codec
Format profile : [email protected]
Format settings, CABAC : Yes
Format settings, ReFrames : 5 frames
Codec ID : V_MPEG4/ISO/AVC
Duration : 1 h 39 min
Bit rate : 5 522 kb/s
Width : 1 280 pixels
Height : 720 pixels
Display aspect ratio : 16:9
Frame rate mode : Constant
Frame rate : 23.976 FPS
Color space : YUV
Chroma subsampling : 4:2:0
Bit depth : 8 bits
Scan type : Progressive
Bits/(Pixel*Frame) : 0.250
Stream size : 3.84 GiB (84%)
Title : Trust The Man (2005) 720p [ukr.eng] Hurtom
Writing library : core 58 r771 b6a966a
Encoding settings : cabac=1 / ref=5 / deblock=1:0:0 / analyse=0x3:0x113 / me=umh / subme=7 / brdo=1 / mixed_ref=1 / me_range=16 / chroma_me=1 / trellis=1 / 8x8dct=1 / cqm=0 / deadzone=21,11 / chroma_qp_offset=0 / threads=6 / nr=0 / decimate=1 / mbaff=0 / bframes=3 / b_pyramid=1 / b_adapt=1 / b_bias=0 / direct=1 / wpredb=1 / bime=1 / keyint=250 / keyint_min=25 / scenecut=40(pre) / rc=2pass / bitrate=5522 / ratetol=1.0 / rceq='blurCplx^(1-qComp)' / qcomp=0.60 / qpmin=10 / qpmax=51 / qpstep=4 / cplxblur=20.0 / qblur=0.5 / ip_ratio=1.40 / pb_ratio=1.30
Language : Multiple languages
Default : Yes
Forced : No

Audio #1
ID : 2
Format : AC-3
Format/Info : Audio Coding 3
Mode extension : CM (complete main)
Format settings, Endianness : Big
Codec ID : A_AC3
Duration : 2 h 9 min
Bit rate mode : Constant
Bit rate : 448 kb/s
Channel(s) : 6 channels
Channel positions : Front: L C R, Side: L R, LFE
Sampling rate : 48.0 kHz
Frame rate : 31.250 FPS (1536 spf)
Bit depth : 16 bits
Compression mode : Lossy
Stream size : 415 MiB (9%)
Title : CITY, K1 channel
Language : Ukrainian
Default : Yes
Forced : Yes

Audio #2
ID : 3
Format : AC-3
Format/Info : Audio Coding 3
Mode extension : CM (complete main)
Format settings, Endianness : Big
Codec ID : A_AC3
Duration : 1 h 39 min
Bit rate mode : Constant
Bit rate : 448 kb/s
Channel(s) : 6 channels
Channel positions : Front: L C R, Side: L R, LFE
Sampling rate : 48.0 kHz
Frame rate : 31.250 FPS (1536 spf)
Bit depth : 16 bits
Compression mode : Lossy
Stream size : 319 MiB (7%)
Title : original
Language : English
Default : No
Forced : No

Text
ID : 4
Format : UTF-8
Codec ID : S_TEXT/UTF8
Codec ID/Info : UTF-8 Plain Text
Duration : 1 h 33 min
Bit rate : 69 b/s
Count of elements : 1373
Stream size : 47.4 KiB (0%)
Language : English
Default : No
Forced : No
Скріншоти







Подяки: MAKAPOHHIK і NemoInFire за звукову доріжку, Fanatesky за постер.

Джерело: &


 Трекер:    Зареєстрований   

Завантажити / скачати фільм українською



відео для новачків



 Зареєстрований:   2018-05-10 18:19
 Розмір:   4.56 GB 
 Оцінка фільму:   7.6/10 (Голосів: 5)
   
Інші релізи
   Довірся чоловіку / Trust the Man (2005) AVC Ukr/Eng | sub Eng bodia87  3 / 0   1.7 GB   2018-05-10 17:16 
   Довірся чоловіку / Trust the Man (2005) NemoInFire  2 / 0   1.37 GB   2011-06-26 10:31 
0mage0 
VIP


З нами з: 06.10.15
Востаннє: 18.12.18
Повідомлень: 412

2018-09-18 18:52  
Ну такий, жіночий фільм Happy Дивитися можна Happy
Ваш часовий пояс: GMT + 2 Години

Нова тема   Відповісти