Довірся чоловіку / Trust the Man (2005) AVC Ukr/Eng | sub Eng

Нові коментарі

Нова тема   Відповісти
Автор Повідомлення
Anonymous 







2018-05-10 17:16  
Довірся чоловіку / Trust the Man (2005) AVC Ukr/Eng | sub Eng

Довірся чоловіку / Trust the Man (2005) AVC Ukr/Eng | sub Eng


Жанр: комедія, драма, романтичний
Країна: США



Кінокомпанія: Sidney Kimmel Entertainment, Process Media, Trust the Man LLC
Режисер: Барт Френдліх
Актори: Девід Духовний, Джуліанна Мур, Біллі Крудап, Меггі Джілленхал, Єва Мендес, Еллен Баркін, Джастін Барта

Сюжет:
Дві подружні пари, дві історії кохання і повне розчарування в ньому. Жінки вийшли на пошуки нових емоцій, а чоловіки задумалися, як зберегти старі почуття. Виявляється, чоловіки теж уміють плакати. Але не тільки. Вони можуть і діяти! Напевно кинуті чоловіки що-небудь та придумають, щоб повернути коханих жінок.


Тривалість: 01:39:30
Якість:
Відео:
кодек:
розмір кадру: 1024 х 576
бітрейт: 1 996 кб/с

Аудіо # 1: ,
мова: українська
переклад: багатоголосий закадровий
кодек: 2.0
бітрейт: 192 кб/с

Аудіо # 2:
мова: англійська
переклад: оригінал
кодек: 2.0
бітрейт: 192 кб/с

Субтитри:
мова: англійська
тип: програмні (м'які)
формат: *.srt
Скріншоти





Info
General
Unique ID : 7236176326573763123866134505425951227 (0x571A309B79500C5722EAAF3248B59FB)
Complete name : E:\films\Trust The Man (2005) AVC [ukr.eng] Hurtom.
Format :
Format version : Version 4 / Version 2
File size : 1.70 GiB
Duration : 2 h 9 min
Overall bit rate : 1 874 kb/s
Encoded date : UTC 2018-05-10 15:04:16
Writing application : v21.0.0 ('Tardigrades Will Inherit The Earth') 64-bit
Writing library : libebml v1.3.5 + v1.4.8

Video
ID : 1
Format : AVC
Format/Info : Advanced Video Codec
Format profile : [email protected]
Format settings, CABAC : Yes
Format settings, ReFrames : 3 frames
Codec ID : V_MPEG4/ISO/AVC
Duration : 1 h 39 min
Bit rate : 1 996 kb/s
Width : 1 024 pixels
Height : 576 pixels
Display aspect ratio : 16:9
Frame rate mode : Constant
Frame rate : 23.976 (24000/1001) FPS
Color space : YUV
Chroma subsampling : 4:2:0
Bit depth : 8 bits
Scan type : Progressive
Bits/(Pixel*Frame) : 0.141
Stream size : 1.39 GiB (82%)
Title : Trust The Man (2005) AVC [ukr.eng] Hurtom
Writing library : core 155 r2901 7d0ff22
Encoding settings : cabac=1 / ref=3 / deblock=1:0:0 / analyse=0x1:0x111 / me=hex / subme=8 / psy=1 / psy_rd=1.00:0.00 / mixed_ref=1 / me_range=16 / chroma_me=1 / trellis=2 / 8x8dct=0 / cqm=0 / deadzone=21,11 / fast_pskip=1 / chroma_qp_offset=-2 / threads=12 / lookahead_threads=2 / sliced_threads=0 / nr=0 / decimate=1 / interlaced=0 / bluray_compat=0 / constrained_intra=0 / bframes=3 / b_pyramid=0 / b_adapt=1 / b_bias=0 / direct=1 / weightb=1 / open_gop=0 / weightp=2 / keyint=240 / keyint_min=23 / scenecut=40 / intra_refresh=0 / rc_lookahead=40 / rc=crf / mbtree=1 / crf=17.0 / qcomp=0.60 / qpmin=0 / qpmax=69 / qpstep=4 / vbv_maxrate=14000 / vbv_bufsize=14000 / crf_max=0.0 / nal_hrd=none / filler=0 / ip_ratio=1.40 / aq=1:1.00
Language : Multiple languages
Default : Yes
Forced : No

Audio #1
ID : 2
Format : AC-3
Format/Info : Audio Coding 3
Mode extension : CM (complete main)
Format settings, Endianness : Big
Codec ID : A_AC3
Duration : 2 h 9 min
Bit rate mode : Constant
Bit rate : 192 kb/s
Channel(s) : 2 channels
Channel positions : Front: L R
Sampling rate : 48.0 kHz
Frame rate : 31.250 FPS (1536 spf)
Bit depth : 16 bits
Compression mode : Lossy
Stream size : 178 MiB (10%)
Title : CITY, K1 channel
Language : Ukrainian
Default : Yes
Forced : Yes

Audio #2
ID : 3
Format : AC-3
Format/Info : Audio Coding 3
Mode extension : CM (complete main)
Format settings, Endianness : Big
Codec ID : A_AC3
Duration : 1 h 39 min
Bit rate mode : Constant
Bit rate : 192 kb/s
Channel(s) : 2 channels
Channel positions : Front: L R
Sampling rate : 48.0 kHz
Frame rate : 31.250 FPS (1536 spf)
Bit depth : 16 bits
Compression mode : Lossy
Stream size : 137 MiB (8%)
Title : original
Language : English
Default : No
Forced : No

Text
ID : 4
Format : UTF-8
Codec ID : S_TEXT/UTF8
Codec ID/Info : UTF-8 Plain Text
Duration : 1 h 33 min
Bit rate : 69 b/s
Count of elements : 1373
Stream size : 47.4 KiB (0%)
Default : Yes
Forced : No
Подяки: MAKAPOHHIK і NemoInFire за звукову доріжку, Fanatesky за постер.

Джерело:


 Трекер:    Зареєстрований   

Завантажити / скачати фільм українською



відео для новачків



 Зареєстрований:   2018-05-10 17:16
 Розмір:   1.7 GB 
 Оцінка фільму:   9.4/10 (Голосів: 14)
   
Інші релізи
   Довірся чоловіку / Trust the Man (2005) 720p Ukr/Eng | sub Eng bodia87  2 / 0   4.56 GB   2018-05-10 18:19 
   Довірся чоловіку / Trust the Man (2005) NemoInFire  2 / 0   1.37 GB   2011-06-26 10:31 
volodymyr_sav 
VIP


З нами з: 07.10.13
Востаннє: 22.02.19
Повідомлень: 1519

2018-05-11 14:04  
Качаю. бо вірю, що з цими акторками буде хороший фільм
Djohnnikey 
Свій


З нами з: 01.10.15
Востаннє: 20.02.19
Повідомлень: 141

2018-05-15 11:26  
Як комедія фільм, звичайно, ніякий. Єдиний момент, який викликав сміх - обговорення члена нового коханця.
Психологічна драма про те, що жінки не дружать з логікою. Особливо сумна історія персонажа Духовного. Спочатку дружина його змусила бути домогосподарем, тому сама ж перестала сприймати як чоловіка, щоб потім звинуватити у зраді. Загалом, оцінка - слабка четвірка.

volodymyr_sav 
VIP


З нами з: 07.10.13
Востаннє: 22.02.19
Повідомлень: 1519

2018-11-26 16:51  
Дурнувате кіно про нереальні речі. Забагато примітивних діалогів і взагалі розмов про банальні речі, а ще доведення якихось безглуздих переконань та позицій. Актори певне не винні, бо сценарій препаршивий, але і їх депресивна міміка та жести змушувала мене три дні частинами додивлятись фільм. Та й драмою тут не пахне. Коли жінка не спить з чоловіком чи чоловік не хоче дитину від тієї з ким зустрічається, то це вирок стосункам і говорити тут нема про що...
3/10 - сам не знаю за що. Можливо за звабливі епізоди з Євою та гарненьку одиноку мамцю, що природно поводилась. Дуже нудно, дивитись не пораджу

Ваш часовий пояс: GMT + 2 Години

Нова тема   Відповісти