Я вбиваю велетнів / I Kill Giants (2017) 720p Ukr/Eng | Sub Ukr/Eng

Нові коментарі

Нова тема   Відповісти
Автор Повідомлення
Anonymous 







2018-05-10 17:30  
Я вбиваю велетнів / I Kill Giants (2017) 720p Ukr/Eng | Sub Ukr/Eng

Я вбиваю велетнів / I Kill Giants (2017) 720p Ukr/Eng | Sub Ukr/Eng


Жанр: драма, фентезі, трилер
Країна: США, Велика Британія, Бельгія



Кінокомпанія: 1492 Pictures, Ocean Blue Entertainment, XYZ Films
Режисер: Андерс Вальтер / Anders Walter
Актори: Зої Салдана / Zoe Saldana, Медісон Вольфе / Madison Wolfe, Імоджен Путс / Imogen Poots, Сидні Вайде / Sydney Wade, Дженніфер Елі / Jennifer Ehle, Рорі Джексон / Rory Jackson та інші

Сюжет:
У школі над Барбарою (Медісон Вульф) усі насміхаються, окрім Софії, однокласниці та сусідки. А вдома із родичів є лише старша сестра Карен(Імоджен Путс) та брат. Вдень сестра працює, а вечорами готує та прибирає у будинку, тож на ігри із молодшою Барбарою часу в неї не залишається. Сама ж дівчинка не нудьгує, оскільки увесь вільний час проводить у боротьбі з велетнями. Вона має унікальну силу проникати у їхній світ, однак ніхто крім неї в це не вірить. І лише шкільному психологу місіс Моллі (Зої Салдана) не байдуже що відчуває та про що думає Барбара.

Фентезійна драма «Я вбиваю велетнів» – це екранізація однойменного графічного роману. Авторами першоджерела є сценарист Джо Келлі та художник Х.М. Кен Ніімура.
Офіційний український трейлер:


Рейтинг MPAA: PG-13 - дітям до 13 років перегляд не бажаний
Вікова категорія: 12+
Тривалість: 01:46:23
Якість: 720p
Відео:
кодек:
розмір кадру: 1280 х 536
бітрейт: 3744 кб/с

Аудіо # 1:
мова: українська
переклад: професійний дубльований | студія Tretyakoff production
кодек: 2.0 [stereo]
бітрейт: 192 кб/с

Аудіо # 2:
мова: англійська
переклад: оригінал
кодек: 5.1
бітрейт: 640 кб/с

Субтитри # 1:
мова: українська
тип: програмні (м'які)
формат: *.srt

Субтитри # 2:
мова: англійська
тип: програмні (м'які)
формат: *.srt

Збережено оригінальні розділи
Info та log
Код:
Complete name               : I Kill Giants (2017) [Ukr,Eng sub.Ukr,Eng] 720p [Hurtom].
Format                      :
Format version              : Version 4 / Version 2
File size                   : 3.40 GiB
Duration                    : 1 h 46 min
Overall bit rate            : 4 579 kb/s
Movie name                  : Я вбиваю велетнів / I Kill Giants (2017) [Ukr,Eng sub.Ukr,Eng] 720p [Hurtom]
Released date               : 2017
Encoded date                : UTC 2018-05-21 16:22:47
Writing application         : v23.0.0 ('The Bride Said No') 64-bit
Writing library             : libebml v1.3.6 + v1.4.9
Cover                       : Yes
Comment                     : http://www.imdb.com/title/tt4547194/
Attachments                 : cover.jpg
ARTIST                      : Зої Салдана / Zoe Saldana, Медісон Вольфе / Madison Wolfe, Імоджен Путс / Imogen Poots, Сидні Вайде / Sydney Wade, Дженніфер Елі / Jennifer Ehle, Рорі Джексон / Rory Jackson та інші
DIRECTOR                    : Андерс Вальтер / Anders Walter
GENRE                       : драма, фентезі, трилер
SYNOPSIS                    : У школі над Барбарою (Медісон Вульф) усі насміхаються, окрім Софії, однокласниці та сусідки. А вдома із родичів є лише старша сестра Карен(Імоджен Путс) та брат. Вдень сестра працює, а вечорами готує та прибирає у будинку, тож на ігри із молодшою Барбарою часу в неї не залишається. Сама ж дівчинка не нудьгує, оскільки увесь вільний час проводить у боротьбі з велетнями. Вона має унікальну силу проникати у їхній світ, однак ніхто крім неї в це не вірить. І лише шкільному психологу місіс Моллі (Зої Салдана) не байдуже що відчуває та про що думає Барбара...
Url                         : https://toloka.to/t89850

Video
ID                          : 1
Format                      : AVC
Format/Info                 : Advanced Video Codec
Format profile              : [email protected]
Format settings             : CABAC / 12 Ref Frames
Format settings, CABAC      : Yes
Format settings, ReFrames   : 12 frames
Codec ID                    : V_MPEG4/ISO/AVC
Duration                    : 1 h 46 min
Bit rate                    : 3 744 kb/s
Width                       : 1 280 pixels
Height                      : 536 pixels
Display aspect ratio        : 2.40:1
Frame rate mode             : Constant
Frame rate                  : 23.976 (24000/1001) FPS
Color space                 : YUV
Chroma subsampling          : 4:2:0
Bit depth                   : 8 bits
Scan type                   : Progressive
Bits/(Pixel*Frame)          : 0.228
Stream size                 : 2.78 GiB (82%)
Title                       : Я вбиваю велетнів / I Kill Giants (2017) 720p [BLUEBIRD]
Writing library             : core 155 r2901 7d0ff22
Encoding settings           : cabac=1 / ref=12 / deblock=1:-3:-3 / analyse=0x3:0x113 / me=umh / subme=10 / psy=1 / psy_rd=1.05:0.00 / mixed_ref=1 / me_range=32 / chroma_me=1 / trellis=2 / 8x8dct=1 / cqm=0 / deadzone=21,11 / fast_pskip=0 / chroma_qp_offset=-2 / threads=6 / lookahead_threads=1 / sliced_threads=0 / nr=0 / decimate=0 / interlaced=0 / bluray_compat=0 / constrained_intra=0 / bframes=9 / b_pyramid=2 / b_adapt=2 / b_bias=0 / direct=3 / weightb=1 / open_gop=0 / weightp=2 / keyint=240 / keyint_min=23 / scenecut=40 / intra_refresh=0 / rc_lookahead=75 / rc=crf / mbtree=0 / crf=15.4 / qcomp=0.65 / qpmin=0 / qpmax=69 / qpstep=4 / vbv_maxrate=50000 / vbv_bufsize=62500 / crf_max=0.0 / nal_hrd=none / filler=0 / ip_ratio=1.30 / pb_ratio=1.20 / aq=1:0.80
Language                    : English
Default                     : Yes
Forced                      : No

Audio #1
ID                          : 2
Format                      : AC-3
Format/Info                 : Audio Coding 3
Codec ID                    : A_AC3
Duration                    : 1 h 46 min
Bit rate mode               : Constant
Bit rate                    : 192 kb/s
Channel(s)                  : 2 channels
Channel positions           : Front: L R
Sampling rate               : 48.0 kHz
Frame rate                  : 31.250 FPS (1536 SPF)
Bit depth                   : 16 bits
Compression mode            : Lossy
Stream size                 : 146 MiB (4%)
Title                       : Dub [Tretyakoff production, Megogo], 2.0 [stereo] 192 Kbps
Language                    : Ukrainian
Service kind                : Complete Main
Default                     : Yes
Forced                      : Yes

Audio #2
ID                          : 3
Format                      : AC-3
Format/Info                 : Audio Coding 3
Codec ID                    : A_AC3
Duration                    : 1 h 46 min
Bit rate mode               : Constant
Bit rate                    : 640 kb/s
Channel(s)                  : 6 channels
Channel positions           : Front: L C R, Side: L R, LFE
Sampling rate               : 48.0 kHz
Frame rate                  : 31.250 FPS (1536 SPF)
Bit depth                   : 16 bits
Compression mode            : Lossy
Stream size                 : 487 MiB (14%)
Title                       : Original, 5.1 640 Kbps
Language                    : English
Service kind                : Complete Main
Default                     : No
Forced                      : No

Text #1
ID                          : 4
Format                      : UTF-8
Codec ID                    : S_TEXT/UTF8
Codec ID/Info               : UTF-8 Plain Text
Duration                    : 1 h 32 min
Bit rate                    : 60 b/s
Count of elements           : 937
Stream size                 : 41.1 KiB (0%)
Title                       : Ukr full
Language                    : Ukrainian
Default                     : No
Forced                      : No

Text #2
ID                          : 5
Format                      : UTF-8
Codec ID                    : S_TEXT/UTF8
Codec ID/Info               : UTF-8 Plain Text
Duration                    : 1 h 36 min
Bit rate                    : 39 b/s
Count of elements           : 1055
Stream size                 : 27.9 KiB (0%)
Title                       : Eng SDH
Language                    : English
Default                     : No
Forced                      : No

Menu
00:00:00.000                : :00:00:00.000
00:08:40.352                : :00:08:40.353
00:16:09.802                : :00:16:09.802
00:20:35.609                : :00:20:35.609
00:32:25.318                : :00:32:25.318
00:51:53.819                : :00:51:53.819
01:04:16.144                : :01:04:16.144
01:16:04.977                : :01:16:04.977
01:23:37.012                : :01:23:37.012
01:37:49.906                : :01:37:49.906

Код:
--crf 15.4 --preset veryslow --me umh --subme 10 --bframes 9 --deblock -3:-3 --ipratio 1.30 --pbratio 1.20 --psy-rd 1.05
--qcomp 0.65 --aq-strength 0.8 --merange 32 --no-fast-pskip --no-mbtree --no-dct-decimate

[info]: frame I:1300  Avg QP:12.22  size:103822
[info]: frame P:30359 Avg QP:13.54  size: 37884
[info]: frame B:121384 Avg QP:14.29  size: 14026



Джерело: &
Подяка анонімному толоківцю за придбання доріжки та субтитри та Electroz'у за синхронізацію доріжки.

21.05.2018 реліз оновлено до 'а


 Трекер:    Зареєстрований   

Завантажити / скачати фільм українською



відео для новачків



 Зареєстрований:   2018-05-21 19:37
 Розмір:   3.4 GB 
 Оцінка фільму:   8.4/10 (Голосів: 28)
   
Anonymous 







2018-05-21 19:40  
Реліз оновлено до 'а

Додано через 47 секунд:

"золото" на тиждень для заохочення підтримки.

Blanove 
Свій


З нами з: 01.05.15
Востаннє: 06.10.18
Повідомлень: 95

2018-07-10 19:02  
цікаво, що воно таке за творіння Андерса Вальтера
на imdb випадково натрапив.... зацінимо.

Purlogin 
Частий відвідувач


З нами з: 27.05.15
Востаннє: 07.10.18
Повідомлень: 32

2018-07-15 19:51  
і я заціню, що за картина
Ваш часовий пояс: GMT + 2 Години

Нова тема   Відповісти