Стільниковий / Cellular (2004) 1080p Ukr/Eng | sub Ukr/Eng

Нові коментарі

Нова тема   Відповісти
Останній раз роздавалося staf777 (2019-05-23)
Автор Повідомлення
staf777 
Відео Гуртом - підтримка та поширення
Відео Гуртом - підтримка та поширення


З нами з: 16.11.16
Востаннє: 23.05.19
Повідомлень: 2379

2018-05-10 13:57  
Стільниковий / Cellular (2004) 1080p Ukr/Eng | sub Ukr/Eng

Стільниковий / Cellular (2004) 1080p Ukr/Eng | sub Ukr/Eng


Жанр: бойовик, трилер, драма, кримінальний
Країна: США, Німеччина



Кінокомпанія: New Line Cinema, Electric Entertainment, LFG Filmproduktions & Company
Режисер: Девід Р. Елліс
Актори: Кім Бесінджер, Джейсон Стетхем, Джессіка Біл, Кріс Еванс, Ерік Крістіан Олсен,, Річард Берджі, Едді Дрісколл

Сюжет:
Джесіку викрали і замкнули. І все ж таки їй вдається зробити телефонний дзвінок. Не довіряючи поліції, вона навмання набирає номер стільникового телефону. Трубку знімає її випадковий співрозмовник Райан: «Мене викрали, вони хочуть убити мене, мого чоловіка і сина. Я не знаю, де я. Допоможіть мені! »З цього моменту життя нероби Райана перевертається. Тепер від нього залежить доля невідомих йому людей. Викрадачі можуть повернутися в будь-яку хвилину, а у Райана як на зло скоро сяде акумулятор ...


Тривалість: 01:33:59
Якість:
Відео:
кодек:
розмір кадру: 1920x1080
бітрейт: 11.6 Мб/с

Аудіо # 1: &
мова: українська
переклад: багатоголосий закадровий
кодек: 5.1
бітрейт: 448 кб/с

Аудіо # 2:
мова: англійська
переклад: оригінал
кодек: 5.1
бітрейт: 1509 кб/с

Субтитри:[Forced Full]
мова: українська
тип: програмні (м'які)
формат: *.srt

Субтитри:
мова: англійська
тип: програмні (м'які)
формат: *.srt
Info
General
Unique ID : 175656589074304882516118501896599399079 (0x84263A7DD7D2FB319E78CBFEC4D46AA7)
Complete name : H:\Cellular.2004..1080p (1).
Format :
Format version : Version 4 / Version 2
File size : 8.90 GiB
Duration : 1 h 33 min
Overall bit rate : 13.6 Mb/s
Movie name : Cellular (2004) 1080p [Ukr Eng][Sub Ukr Eng][Hurtom]
Encoded date : UTC 2018-05-10 10:30:26
Writing application : v9.8.0 ('Kuglblids') 64bit
Writing library : libebml v1.3.4 + v1.4.5
Cover : Yes
Attachments : cover.jpg

Video
ID : 1
Format : AVC
Format/Info : Advanced Video Codec
Format profile : [email protected]
Format settings : CABAC / 4 Ref Frames
Format settings, CABAC : Yes
Format settings, ReFrames : 4 frames
Codec ID : V_MPEG4/ISO/AVC
Duration : 1 h 33 min
Bit rate : 11.6 Mb/s
Width : 1 920 pixels
Height : 1 080 pixels
Display aspect ratio : 16:9
Frame rate mode : Constant
Frame rate : 23.976 (24000/1001) FPS
Color space : YUV
Chroma subsampling : 4:2:0
Bit depth : 8 bits
Scan type : Progressive
Bits/(Pixel*Frame) : 0.233
Stream size : 7.61 GiB (86%)
Title : Сотовый / Cellular (2004)
Writing library : core 146 r2538 121396c
Encoding settings : cabac=1 / ref=4 / deblock=1:-3:-3 / analyse=0x3:0x113 / me=umh / subme=11 / psy=1 / psy_rd=1.10:0.10 / mixed_ref=1 / me_range=32 / chroma_me=1 / trellis=2 / 8x8dct=1 / cqm=0 / deadzone=21,11 / fast_pskip=0 / chroma_qp_offset=-3 / threads=6 / lookahead_threads=1 / sliced_threads=0 / nr=0 / decimate=0 / interlaced=0 / bluray_compat=0 / constrained_intra=0 / bframes=7 / b_pyramid=2 / b_adapt=2 / b_bias=0 / direct=3 / weightb=1 / open_gop=0 / weightp=2 / keyint=240 / keyint_min=23 / scenecut=40 / intra_refresh=0 / rc_lookahead=40 / rc=2pass / mbtree=0 / bitrate=11600 / ratetol=1.0 / qcomp=0.60 / qpmin=0 / qpmax=69 / qpstep=4 / cplxblur=20.0 / qblur=0.5 / vbv_maxrate=50000 / vbv_bufsize=62500 / nal_hrd=none / filler=0 / ip_ratio=1.40 / pb_ratio=1.30 / aq=1:1.00
Language : English
Default : Yes
Forced : No

Audio #1
ID : 2
Format : AC-3
Format/Info : Audio Coding 3
Codec ID : A_AC3
Duration : 1 h 33 min
Bit rate mode : Constant
Bit rate : 448 kb/s
Channel(s) : 6 channels
Channel positions : Front: L C R, Side: L R, LFE
Sampling rate : 48.0 kHz
Frame rate : 31.250 FPS (1536 SPF)
Bit depth : 16 bits
Compression mode : Lossy
Stream size : 301 MiB (3%)
Title : [UA-MVO]
Language : Ukrainian
Service kind : Complete Main
Default : Yes
Forced : Yes

Audio #2
ID : 3
Format :
Format/Info : Digital Theater Systems
Codec ID : A_DTS
Duration : 1 h 33 min
Bit rate mode : Constant
Bit rate : 1 509 kb/s
Channel(s) : 6 channels
Channel positions : Front: L C R, Side: L R, LFE
Sampling rate : 48.0 kHz
Frame rate : 93.750 FPS (512 SPF)
Bit depth : 24 bits
Compression mode : Lossy
Stream size : 1 015 MiB (11%)
Title : Original
Language : English
Default : No
Forced : No

Text #1
ID : 4
Format : UTF-8
Codec ID : S_TEXT/UTF8
Codec ID/Info : UTF-8 Plain Text
Duration : 5 min 23 s
Bit rate : 68 b/s
Count of elements : 54
Stream size : 2.73 KiB (0%)
Title : Forced
Language : Ukrainian
Default : Yes
Forced : Yes

Text #2
ID : 5
Format : UTF-8
Codec ID : S_TEXT/UTF8
Codec ID/Info : UTF-8 Plain Text
Duration : 1 h 29 min
Bit rate : 74 b/s
Count of elements : 904
Stream size : 49.0 KiB (0%)
Title : Full
Language : Ukrainian
Default : No
Forced : No

Text #3
ID : 6
Format : UTF-8
Codec ID : S_TEXT/UTF8
Codec ID/Info : UTF-8 Plain Text
Duration : 1 h 26 min
Bit rate : 54 b/s
Count of elements : 1097
Stream size : 34.8 KiB (0%)
Title : Full
Language : English
Default : No
Forced : No

Menu
00:00:00.000 : en:Taken and Trapped
00:05:50.483 : en:Healing the Day
00:12:45.431 : en:"Who Is This?"
00:18:12.891 : en:Police Station
00:23:16.161 : en:Wyman School
00:29:46.951 : en:Low Battery
00:36:18.009 : en:"You Got 3 Seconds!"
00:44:53.924 : en:Crossed Lines
00:52:58.108 : en:Lax
00:59:13.483 : en:Connections
01:06:52.274 : en:Safe Deposit
01:10:53.449 : en:Mooney's House Call
01:15:35.564 : en:Offline
01:22:16.331 : en:Pier Hunt
01:24:48.016 : en:Last Call
01:27:48.630 : en:End Credits
Скріншоти




Запис з ТБ - Bohdan237 Синхронізація JACKUS

Джерело: &
Особиста оцінка: 8 - мені сподобалося


Срібний реліз (на рейтинг впливає 50% завантаженого)
 Трекер:    Зареєстрований   

Завантажити / скачати фільм українською



відео для новачків



 Зареєстрований:   2018-05-10 14:02
 Розмір:   8.9 GB 
 Оцінка фільму:   10/10 (Голосів: 6)
   
Інші релізи
   Стільниковий / Cellular (2004) Remux 1080i Ukr/Eng | Sub Ukr/Eng BABELAN  0 / 0   12.54 GB   2019-01-23 15:58 
   Стільниковий / Cellular (2004) 720p Ukr/Eng | sub Ukr/Eng JACKUS  2 / 0   4.46 GB   2018-05-10 09:13 
   Стільниковий / Cellular (2004) Ukr/Eng | sub Eng JACKUS  1 / 0   1.79 GB   2018-05-04 07:48 
   Стільниковий / Cellular (2004) AVC Ukr/Eng | sub Eng Arsenfpu  3 / 0   1.95 GB   2018-03-10 19:06 
Ваш часовий пояс: GMT + 2 Години

Нова тема   Відповісти