Хроніки Шаннари (Сезон 2) / The Shannara Chronicles (Season 2) (2017) 1080р 2xUkr/Eng

Нові коментарі

Нова тема   Відповісти
Автор Повідомлення
Anonymous 







2018-05-09 18:50  
Хроніки Шаннари (Сезон 2) / The Shannara Chronicles (Season 2) (2017) 1080р 2xUkr/Eng

Хроніки Шаннари (Сезон 2) / The Shannara Chronicles (Season 2) (2017) 1080р 2xUkr/Eng


Жанр: пригодницький, фентезі, фантастика
Країна: США



Кінокомпанія: Farah Films, Music Television (MTV), Sonar Entertainment
Режисер: Джонатан Лібесман (Jonathan Liebesman), Джеймс Маршал (James Marshall), Бред Тьорнер (Brad Turner), Джессі Ворн (Jesse Warn)
Актори: Остін Батлер (Austin Butler), Поппі Дрейтон (Poppy Drayton), Івана Бакеро (Ivana Baquero), Ману Бенет (Manu Bennett), Аарон Якубенко (Aaron Jakubenko), Маркус Ванко (Marcus Vanco), Меліс Джоу (Malese Jow), Ванесса Морґан (Vanessa Morgan) та інші.

Сюжет:
Здолавши Даґдамора і завершивши успішно завдання, герої зазнали втрат та розділилися. Віл вирушив на пошуки Еретреї, яка залишилася у пастці тролів. Емберлі стала Елкріс, а Бендон здався темряві та рушив своїм шляхом. Та зло ніколи не спить і завдасть ударі знову. Тож наші герої зберуться обєднаються і новими союзниками та вирушать на пошуки меча Шаннари, щоб дати бій майбутній загрозі.


Тривалість: 1 серія: ~42 хв. (цілком серій: 10)
Перелік серій
01) Druid
02) Wraith
03) Graymark
04) Dweller
05) Paranor
06) Crimson
07) Warlock
08) Amberle
09) Wilderun
10) Blood
Якість:
Відео:
кодек:
розмір кадру: 1920 х 1080
бітрейт: ~9700 кб/с

Аудіо # 1 (Новий):
мова: українська
переклад: багатоголосий закадровий
кодек: 2.0
бітрейт: 192 кб/с

Джерело озвучення:


Аудіо # 2 (BaibaKo):
мова: українська
переклад: багатоголосий закадровий
кодек: 2.0
бітрейт: 192 кб/с

Джерело озвучення:


Аудіо # 3:
мова: англійська
переклад: оригінал
кодек: 5.1
бітрейт: 1509 кб/с

Субтитри # 1 (форсовані, на місце у 9-й серії, яке Новий забув озвучити):
мова: українська
тип: програмні (м'які)
формат: *.srt
Info
General
Unique ID : 9245239239364066327555240984342106177 (0x6F4917CB9C074BEC34EB9CB3E6F1041)
Complete name : E:\Support\The Shannara Chronicles (Season 2) [, 1080p, Ukr, Eng]\The Shannara Chronicles. S02E09. Wilderun.
Format :
Format version : Version 4 / Version 2
File size : 3.39 GiB
Duration : 41 min 0 s
Overall bit rate : 11.8 Mb/s
Encoded date : UTC 2018-05-26 17:19:29
Writing application : v23.0.0 ('The Bride Said No') 64-bit
Writing library : libebml v1.3.6 + v1.4.9

Video
ID : 1
Format : AVC
Format/Info : Advanced Video Codec
Format profile : [email protected]
Format settings : CABAC / 4 Ref Frames
Format settings, CABAC : Yes
Format settings, ReFrames : 4 frames
Codec ID : V_MPEG4/ISO/AVC
Duration : 40 min 59 s
Bit rate : 9 939 kb/s
Width : 1 920 pixels
Height : 1 080 pixels
Display aspect ratio : 16:9
Frame rate mode : Constant
Frame rate : 24.000 FPS
Color space : YUV
Chroma subsampling : 4:2:0
Bit depth : 8 bits
Scan type : Progressive
Bits/(Pixel*Frame) : 0.200
Stream size : 2.85 GiB (84%)
Writing library : core 152 r2851kMod ba24899
Encoding settings : cabac=1 / ref=4 / deblock=1:0:0 / analyse=0x3:0x133 / me=umh / subme=7 / psy=1 / fade_compensate=0.00 / psy_rd=1.00:0.00 / mixed_ref=1 / me_range=16 / chroma_me=1 / trellis=2 / 8x8dct=1 / cqm=0 / deadzone=21,11 / fast_pskip=0 / chroma_qp_offset=-2 / threads=18 / lookahead_threads=3 / sliced_threads=0 / nr=0 / decimate=1 / interlaced=0 / bluray_compat=0 / constrained_intra=0 / bframes=3 / b_pyramid=2 / b_adapt=1 / b_bias=0 / direct=3 / weightb=1 / open_gop=0 / weightp=2 / keyint=250 / keyint_min=24 / scenecut=40 / intra_refresh=0 / rc_lookahead=50 / rc=2pass / mbtree=1 / bitrate=9939 / ratetol=1.0 / qcomp=0.60 / qpmin=0 / qpmax=69 / qpstep=4 / cplxblur=20.0 / qblur=0.5 / ip_ratio=1.40 / aq=1:1.00
Language : English
Default : Yes
Forced : No

Audio #1
ID : 2
Format : AC-3
Format/Info : Audio Coding 3
Codec ID : A_AC3
Duration : 41 min 0 s
Bit rate mode : Constant
Bit rate : 192 kb/s
Channel(s) : 2 channels
Channel positions : Front: L R
Sampling rate : 48.0 kHz
Frame rate : 31.250 FPS (1536 SPF)
Bit depth : 16 bits
Compression mode : Lossy
Stream size : 56.3 MiB (2%)
Title : Новий
Language : Ukrainian
Service kind : Complete Main
Default : Yes
Forced : No

Audio #2
ID : 3
Format : AC-3
Format/Info : Audio Coding 3
Codec ID : A_AC3
Duration : 41 min 0 s
Bit rate mode : Constant
Bit rate : 192 kb/s
Channel(s) : 2 channels
Channel positions : Front: L R
Sampling rate : 48.0 kHz
Frame rate : 31.250 FPS (1536 SPF)
Bit depth : 16 bits
Compression mode : Lossy
Stream size : 56.3 MiB (2%)
Title : BaibaKo
Language : Ukrainian
Service kind : Complete Main
Default : No
Forced : No

Audio #3
ID : 4
Format :
Format/Info : Digital Theater Systems
Codec ID : A_DTS
Duration : 41 min 0 s
Bit rate mode : Constant
Bit rate : 1 509 kb/s
Channel(s) : 6 channels
Channel positions : Front: L C R, Side: L R, LFE
Sampling rate : 48.0 kHz
Frame rate : 93.750 FPS (512 SPF)
Bit depth : 24 bits
Compression mode : Lossy
Stream size : 443 MiB (13%)
Language : English
Default : No
Forced : No

Text
ID : 5
Format : UTF-8
Codec ID : S_TEXT/UTF8
Codec ID/Info : UTF-8 Plain Text
Duration : 10 s 10 ms
Bit rate : 182 b/s
Count of elements : 4
Stream size : 228 Bytes (0%)
Language : Ukrainian
Default : Yes
Forced : Yes
Скріншоти

Дякую drakon87 та krigg070 за допомогу з записом з ТБ

Джерело: &
Особиста оцінка: 7 - гарна казочка, та перший сезон був значно краще





Авторський реліз (завантажувати можна без реєстрації)
 Трекер:    Зареєстрований   

Завантажити / скачати серіал українською



відео для новачків



 Зареєстрований:   2018-05-27 09:49
 Розмір:   33.91 GB 
 Оцінка серіалу:   8.2/10 (Голосів: 6)
   
Dark Invader 
Модератор відео


З нами з: 06.01.11
Востаннє: 01.12.20
Повідомлень: 3007

2018-05-09 21:22  
Озвучення інше (гірше) ніж в 1-у сезоні. Судячи з голосів, дуже схоже на ТТП.
І було б добре також додати 2-ге озвучення від BaibaKo.

fl_fl 
Відео Гуртом - фільмокрай
Відео Гуртом - фільмокрай


З нами з: 26.05.09
Востаннє: 01.12.20
Повідомлень: 3334

2018-05-09 21:49  
Dark Invader написано:
Озвучення інше (гірше) ніж в 1-у сезоні. Судячи з голосів, дуже схоже на ТТП.

Так і є. Для Нового зараз все робить ТТП. Раніше було краще, бо робили СТБ.

Anonymous 







2018-05-10 08:59  
Dark Invader написано:
Озвучення інше (гірше) ніж в 1-у сезоні. Судячи з голосів, дуже схоже на ТТП.

Так, на жаль, перекладач явно новий і з творчістю попередника не знайшов часу/можливості ознайомитися. Тепер замість бурлак якісь ровери, ім'я Еретрії перебрехав, якась Заборона тепер та й інші зауваження до нього є.
Але голоси старих героїв наче не змінились і в цілому ТТП, як ТТП, щось середньої якості.

Exxxist7 
Новенький


З нами з: 30.08.16
Востаннє: 01.12.20
Повідомлень: 23

2018-05-18 19:25  
Коли буде?
Anonymous 







2018-05-18 20:15  
Exxxist7 написано:
Коли буде?

Мабуть вже наступного тижня.

bot 
робот


З нами з: 30.09.07
Востаннє: 26.05.05
Повідомлень: 26422

2018-05-27 09:49  
Тему перенесено з Анонси релізів до форуму Серіали в HD


Neytreenor

Exxxist7 
Новенький


З нами з: 30.08.16
Востаннє: 01.12.20
Повідомлень: 23

2018-05-27 19:52  
Дякую за реліз!
Ваш часовий пояс: GMT + 2 Години

Нова тема   Відповісти