Євробачення 2018. Перший півфінал / Eurovision 2018. First Semi-Final (08.05.2018) 720p 2xUkr

Нові коментарі

Нова тема   Відповісти
Останній раз роздавалося skryab1 (2019-09-15)
Автор Повідомлення
sergiyko.5 
VIP


З нами з: 25.02.16
Востаннє: 15.09.19
Повідомлень: 2557

2018-05-09 19:42  
Євробачення 2018. Перший півфінал / Eurovision 2018. First Semi-Final (08.05.2018) 720p 2xUkr


Євробачення 2018. Перший півфінал / Eurovision 2018. First Semi-Final (08.05.2018) 720p 2xUkr

Жанр: Пісенний конкурс
Країна: Португалія
Телеканал: UA Перший, СТБ
Коментатори: Тімур Мірошниченко та Марія Яремчук, Сергій Притула

Опис:
Перший півфінал Євробачення-2018 відбувся у Лісабоні у вівторок, 8 травня о 22:00 годині за київським часом.

За місце у фіналі конкурсу поборолись виконавці з 19 країн.


Треклист:
01 Азербайджан: Aisel — «X My Heart»
02 Ісландія: Ari Ólafsson — «Our Choice»
03 Албанія: Eugent Bushpepa — «Mall»
04 Бельгія: Sennek — «A Matter Of Time»
05 Чехія: Mikolas Josef — «Lie To Me»
06 Литва: Ieva Zasimauskaitė — «When We’re Old»
07 Ізраїль: Netta — «Tоу»
08 Білорусь: ALEKSEEV — «Forever»
09 Естонія: Elina Nechayeva — «La Forza»
10 Болгарія: EQUINOX — «Bones»
11 Македонія: Eye Cue — «Lost And Found»
12 Хорватія: Franka — «Crazy»
13 Австрія: Cesár Sampson — «Nobody But You»
14 Греція: Γιάννα Τερζή — «Όνειρό Μου»
15 Фінляндія: Saara Aalto — «Monsters»
16 Вірменія: Sevak Khanagyan — «Qami»
17 Швейцарія: Zibbz — «Stones»
18 Ірландія: Ryan O’Shaughnessy — «Together»
19 Кіпр: Eleni Foureira — «Fuego»

Тривалість: 01:58:35
Якість:

Відео: кодек: розмір кадру: 1280 х 720 бітрейт: 4180 кб/с
Аудіо: мова: українська кодек: 2.0 бітрейт: 192 кб/с UA Перший
Аудіо: мова: українська кодек: 2.0 бітрейт: 192 кб/с СТБ
Про файл:
General
Unique ID : 88092996818129067692360331207696689327 (0x424618136AD3EB8C6E0E8E91336FA8AF)
Complete name : F:\Content\Videomusic\Eurovision Song Contest 2018.1st Semifinal.720p..
Format :
Format version : Version 4 / Version 2
File size : 3.78 GiB
Duration : 1 h 58 min
Overall bit rate : 4 566 kb/s
Movie name : Eurovision Song Contest 2018. 1st Semifinal 720p by sergiyko
Encoded date : UTC 2018-05-09 16:36:02
Writing application : v23.0.0 ('The Bride Said No') 64-bit
Writing library : libebml v1.3.6 + v1.4.9

Video
ID : 1
Format : AVC
Format/Info : Advanced Video Codec
Format profile : [email protected]
Format settings, CABAC : Yes
Format settings, ReFrames : 6 frames
Codec ID : V_MPEG4/ISO/AVC
Duration : 1 h 58 min
Bit rate : 4 180 kb/s
Width : 1 280 pixels
Height : 720 pixels
Display aspect ratio : 16:9
Frame rate mode : Constant
Frame rate : 25.000 FPS
Color space : YUV
Chroma subsampling : 4:2:0
Bit depth : 8 bits
Scan type : Progressive
Bits/(Pixel*Frame) : 0.181
Stream size : 3.46 GiB (92%)
Writing library : core 152 r2851 ba24899
Encoding settings : cabac=1 / ref=6 / deblock=1:-1:-1 / analyse=0x3:0x113 / me=hex / subme=8 / psy=1 / psy_rd=1.00:0.15 / mixed_ref=1 / me_range=16 / chroma_me=1 / trellis=2 / 8x8dct=1 / cqm=0 / deadzone=21,11 / fast_pskip=1 / chroma_qp_offset=-3 / threads=22 / lookahead_threads=3 / sliced_threads=0 / nr=0 / decimate=1 / interlaced=0 / bluray_compat=0 / constrained_intra=0 / bframes=5 / b_pyramid=2 / b_adapt=1 / b_bias=0 / direct=3 / weightb=1 / open_gop=0 / weightp=2 / keyint=250 / keyint_min=25 / scenecut=40 / intra_refresh=0 / rc_lookahead=50 / rc=crf / mbtree=1 / crf=20.0 / qcomp=0.60 / qpmin=0 / qpmax=69 / qpstep=4 / ip_ratio=1.40 / aq=1:1.00
Language : English
Default : Yes
Forced : No

Audio #1
ID : 2
Format : AC-3
Format/Info : Audio Coding 3
Mode extension : CM (complete main)
Format settings, Endianness : Big
Codec ID : A_AC3
Duration : 1 h 58 min
Bit rate mode : Constant
Bit rate : 192 kb/s
Channel(s) : 2 channels
Channel positions : Front: L R
Sampling rate : 48.0 kHz
Frame rate : 31.250 FPS (1536 spf)
Bit depth : 16 bits
Compression mode : Lossy
Stream size : 163 MiB (4%)
Title : UA Перший | Тімур Мірошниченко та Марія Яремчук
Language : Ukrainian
Default : Yes
Forced : No

Audio #2
ID : 3
Format : AC-3
Format/Info : Audio Coding 3
Mode extension : CM (complete main)
Format settings, Endianness : Big
Codec ID : A_AC3
Duration : 1 h 58 min
Bit rate mode : Constant
Bit rate : 192 kb/s
Channel(s) : 2 channels
Channel positions : Front: L R
Sampling rate : 48.0 kHz
Frame rate : 31.250 FPS (1536 spf)
Bit depth : 16 bits
Compression mode : Lossy
Stream size : 163 MiB (4%)
Title : СТБ | Сергій Притула
Language : Ukrainian
Default : No
Forced : No
Скріншоти:


Автор зведення/ріпу: sergiyko


 Трекер:    Зареєстрований   

Завантажити / скачати передачу українською



відео для новачків



 Зареєстрований:   2018-05-09 19:42
 Розмір:   3.78 GB 
 Оцінка передачі:   7/10 (Голосів: 7)
   
DoctorLife 
Частий відвідувач


З нами з: 19.04.10
Востаннє: 14.09.19
Повідомлень: 40

2018-05-10 19:31  
Естонська "La Forza" шикарна.
Ваш часовий пояс: GMT + 2 Години

Нова тема   Відповісти