Євробачення 2018. Перший півфінал / Eurovision 2018. First Semi-Final (08.05.2018) HDTV 1080i 2xUkr

Нові коментарі

Нова тема   Відповісти
Останній раз роздавалося Natahakomarenko (2018-11-07)
Автор Повідомлення
sergiyko.5 
VIP


З нами з: 25.02.16
Востаннє: 13.12.18
Повідомлень: 1991

2018-05-09 09:07  
Євробачення 2018. Перший півфінал / Eurovision 2018. First Semi-Final (08.05.2018) HDTV 1080i 2xUkr


Євробачення 2018. Перший півфінал / Eurovision 2018. First Semi-Final (08.05.2018) HDTV 1080i 2xUkr

Жанр: Пісенний конкурс
Країна: Португалія
Телеканал: UA Перший, СТБ
Коментатори: Тімур Мірошниченко та Марія Яремчук, Сергій Притула

Опис:
Перший півфінал Євробачення-2018 відбувся у Лісабоні у вівторок, 8 травня о 22:00 годині за київським часом.

За місце у фіналі конкурсу поборолись виконавці з 19 країн.


Треклист:
01 Азербайджан: Aisel — «X My Heart»
02 Ісландія: Ari Ólafsson — «Our Choice»
03 Албанія: Eugent Bushpepa — «Mall»
04 Бельгія: Sennek — «A Matter Of Time»
05 Чехія: Mikolas Josef — «Lie To Me»
06 Литва: Ieva Zasimauskaitė — «When We’re Old»
07 Ізраїль: Netta — «Tоу»
08 Білорусь: ALEKSEEV — «Forever»
09 Естонія: Elina Nechayeva — «La Forza»
10 Болгарія: EQUINOX — «Bones»
11 Македонія: Eye Cue — «Lost And Found»
12 Хорватія: Franka — «Crazy»
13 Австрія: Cesár Sampson — «Nobody But You»
14 Греція: Γιάννα Τερζή — «Όνειρό Μου»
15 Фінляндія: Saara Aalto — «Monsters»
16 Вірменія: Sevak Khanagyan — «Qami»
17 Швейцарія: Zibbz — «Stones»
18 Ірландія: Ryan O’Shaughnessy — «Together»
19 Кіпр: Eleni Foureira — «Fuego»

Тривалість: 01:58:35
Якість: HDTV

Відео: кодек: розмір кадру: 1920 х 1080 бітрейт: 8420 кб/с
Аудіо: мова: українська кодек: 2.0 бітрейт: 192 кб/с UA Перший
Аудіо: мова: українська кодек: 2.0 бітрейт: 192 кб/с СТБ
Про файл:
General
Unique ID : 33378654720168441955246809649131998417 (0x191C7EBC7118F0BC1439A3A11352CCD1)
Complete name : F:\Content\Videomusic\Eurovision Song Contest 2018.1st Semifinal.1080i.HDTV.
Format :
Format version : Version 4 / Version 2
File size : 7.30 GiB
Duration : 1 h 58 min
Overall bit rate : 8 808 kb/s
Movie name : Eurovision Song Contest 2018.1st Semifinal 1080i HDTV by sergiyko
Encoded date : UTC 2018-05-09 12:52:33
Writing application : v23.0.0 ('The Bride Said No') 64-bit
Writing library : libebml v1.3.6 + v1.4.9

Video
ID : 1
Format : AVC
Format/Info : Advanced Video Codec
Format profile : [email protected]
Format settings, CABAC : Yes
Format settings, ReFrames : 3 frames
Codec ID : V_MPEG4/ISO/AVC
Duration : 1 h 58 min
Bit rate : 8 420 kb/s
Width : 1 920 pixels
Height : 1 080 pixels
Display aspect ratio : 16:9
Frame rate mode : Variable
Frame rate : 50.000 FPS
Original frame rate : 25.000 FPS
Standard : Component
Color space : YUV
Chroma subsampling : 4:2:0
Bit depth : 8 bits
Scan type : Interlaced
Scan type, store method : Separated fields
Scan order : Top Field First
Bits/(Pixel*Frame) : 0.081
Stream size : 6.98 GiB (96%)
Language : English
Default : Yes
Forced : No
Color range : Limited
Color primaries : BT.709
Transfer characteristics : BT.709
Matrix coefficients : BT.709

Audio #1
ID : 2
Format : AC-3
Format/Info : Audio Coding 3
Mode extension : CM (complete main)
Format settings, Endianness : Big
Codec ID : A_AC3
Duration : 1 h 58 min
Bit rate mode : Constant
Bit rate : 192 kb/s
Channel(s) : 2 channels
Channel positions : Front: L R
Sampling rate : 48.0 kHz
Frame rate : 31.250 FPS (1536 spf)
Bit depth : 16 bits
Compression mode : Lossy
Stream size : 163 MiB (2%)
Title : Тімур Мірошниченко та Марія Яремчук
Language : Ukrainian
Default : Yes
Forced : No

Audio #2
ID : 3
Format : AC-3
Format/Info : Audio Coding 3
Mode extension : CM (complete main)
Format settings, Endianness : Big
Codec ID : A_AC3
Duration : 1 h 58 min
Bit rate mode : Constant
Bit rate : 192 kb/s
Channel(s) : 2 channels
Channel positions : Front: L R
Sampling rate : 48.0 kHz
Frame rate : 31.250 FPS (1536 spf)
Bit depth : 16 bits
Compression mode : Lossy
Stream size : 163 MiB (2%)
Title : Сергій Притула
Language : Ukrainian
Default : No
Forced : No
Скріншоти:


Зведення: sergiyko


 Трекер:    Зареєстрований   

Завантажити / скачати передачу українською



відео для новачків



 Зареєстрований:   2018-05-09 14:59
 Розмір:   7.3 GB 
 Оцінка передачі:   7.4/10 (Голосів: 7)
   
sania2011 
Поважний учасник


З нами з: 25.02.11
Востаннє: 13.12.18
Повідомлень: 188

2018-05-09 15:05  
Притула коментував?
VIKTOtor 
Свій


З нами з: 02.01.12
Востаннє: 12.12.18
Повідомлень: 137

2018-05-09 15:41  
sania2011
так, на СТБ

Burns 
Новенький


З нами з: 12.05.17
Востаннє: 08.08.18
Повідомлень: 1

2018-08-08 09:10  
Люди станьте хто-небудь на роздачу.
Ваш часовий пояс: GMT + 2 Години

Нова тема   Відповісти