Чужий: Заповіт / Alien: Covenant (2017) AVC [Open Matte]

Нові коментарі

Нова тема   Відповісти
Автор Повідомлення
21jumpstreet 
VIP


З нами з: 03.07.12
Востаннє: 12.11.19
Повідомлень: 719

2018-05-08 18:09  
Чужий: Заповіт / Alien: Covenant (2017) AVC [Open Matte]

Чужий: Заповіт / Alien: Covenant (2017) AVC [Open Matte]


Жанр: пригоди, трилер, жахи, фантастика
Країна: США, Великобританія, Австралія, Нова Зеландія



Кінокомпанія: 20th Century Fox, Scott Free Productions, TSG
Режисер: Рідлі Скотт
Актори: Майкл Фассбендер, Кетрін Вотерстон, Біллі Крудап, Денні МакБрайд, Деміан Бішир, Кармен Еджоґо, Джуссі Смоллетт, Каллі Ернандес, Емі Саймец, Джеймс Франко

Сюжет:
Команда колоніального корабля "Заповіт" зробила посадку на дуже далеку планету маловідомого куточку галактики. Багато в чому це можна назвати другою Землею, адже там навіть ростуть наші рослини. "Заповіт" ніби знайшов рай за межами нашої планети. Згодом команда розуміє те, що вони не в раю... Це стане для них справжнім пеклом, з незвіданим світом, де єдиним жителем є андроїд на ім'я Девід, єдиний вцілилий з приреченої експедиції "Прометей". Але чи один він залишався на таємничій планеті?


Тривалість: 02:02:09
Якість:
Відео:
кодек:
розмір кадру: 960 х 540
бітрейт: 1313 кб/с

Аудіо:
мова: українська
переклад: професійний дубльований
кодек: 5.1
бітрейт: 384 кб/с

Джерело озвучення:


Скріншоти:



Info:
C:\Users\Admin\Downloads\Alien.Covenant (2017) AVC [Open Matte] [Hurtom].
General
Unique ID : 75907035757330951901811083549652707884 (0x391B29CF0AF1977E5DAA281B658A6A2C)
Complete name : C:\Users\Admin\Downloads\Alien.Covenant (2017) AVC [Open Matte] [Hurtom].
Format :
Format version : Version 4 / Version 2
File size : 1.45 GiB
Duration : 2 h 2 min
Overall bit rate : 1 698 kb/s
Movie name : Alien. Covenant (2017) AVC [Open Matte] [Hurtom]
Encoded date : UTC 2018-05-08 15:58:04
Writing application : v22.0.0 ('At The End Of The World') 32-bit
Writing library : libebml v1.3.5 + v1.4.8
Attachments : poster.jpg
Video #1
ID : 1
Format : AVC
Format/Info : Advanced Video Codec
Format profile : [email protected]
Format settings, CABAC : Yes
Format settings, ReFrames : 11 frames
Codec ID : V_MPEG4/ISO/AVC
Duration : 2 h 2 min
Bit rate : 1 313 kb/s
Width : 960 pixels
Height : 540 pixels
Display aspect ratio : 16:9
Frame rate mode : Constant
Frame rate : 23.976 (24000/1001) FPS
Color space : YUV
Chroma subsampling : 4:2:0
Bit depth : 8 bits
Scan type : Progressive
Bits/(Pixel*Frame) : 0.106
Stream size : 1.12 GiB (77%)
Title : RIP_BY_-=DoMiNo=-
Writing library : core 155 r2901M 7d0ff22
Encoding settings : cabac=1 / ref=11 / deblock=1:-1:-1 / analyse=0x3:0x133 / me=umh / subme=11 / psy=1 / psy_rd=1.00:0.15 / mixed_ref=1 / me_range=48 / chroma_me=1 / trellis=2 / 8x8dct=1 / cqm=0 / deadzone=21,11 / fast_pskip=0 / chroma_qp_offset=-3 / threads=6 / lookahead_threads=1 / sliced_threads=0 / nr=0 / decimate=1 / interlaced=0 / bluray_compat=0 / constrained_intra=0 / bframes=12 / b_pyramid=2 / b_adapt=2 / b_bias=0 / direct=3 / weightb=1 / open_gop=0 / weightp=2 / keyint=240 / keyint_min=24 / scenecut=40 / intra_refresh=0 / rc_lookahead=80 / rc=2pass / mbtree=1 / bitrate=1313 / ratetol=1.0 / qcomp=0.70 / qpmin=0 / qpmax=69 / qpstep=4 / cplxblur=20.0 / qblur=0.5 / vbv_maxrate=50000 / vbv_bufsize=50000 / nal_hrd=none / filler=0 / ip_ratio=1.40 / aq=1:0.80
Default : Yes
Forced : No
Color range : Limited
Color primaries : BT.709
Transfer characteristics : BT.709
Matrix coefficients : BT.709
Audio #2
ID : 2
Format : AC-3
Format/Info : Audio Coding 3
Mode extension : CM (complete main)
Format settings, Endianness : Big
Codec ID : A_AC3
Duration : 2 h 2 min
Bit rate mode : Constant
Bit rate : 384 kb/s
Channel(s) : 6 channels
Channel positions : Front: L C R, Side: L R, LFE
Sampling rate : 48.0 kHz
Frame rate : 31.250 FPS (1536 spf)
Compression mode : Lossy
Stream size : 335 MiB (23%)
Title : UKR DUB CEE
Language : Ukrainian
Default : Yes
Forced : No[/code]
Джерело: &





 Трекер:    Зареєстрований   

Завантажити / скачати фільм українською



відео для новачків



 Зареєстрований:   2018-05-08 19:20
 Розмір:   1.45 GB 
 Оцінка фільму:   8.5/10 (Голосів: 14)
   
bot 
робот


З нами з: 30.09.07
Востаннє: 26.05.05
Повідомлень: 22461

2018-05-08 18:09  
Тему перенесено з Фільми до форуму Анонси релізів


21jumpstreet

bot 
робот


З нами з: 30.09.07
Востаннє: 26.05.05
Повідомлень: 22461

2018-05-08 19:20  
Тему перенесено з Анонси релізів до форуму Фільми


21jumpstreet

Victor_Scythian 
Забанено
Забанено


З нами з: 06.01.17
Востаннє: 22.10.19
Повідомлень: 287

2018-05-08 20:01  
На мою особисту думку - найгірший з усієї серії "Чужий".
Ваш часовий пояс: GMT + 2 Години

Нова тема   Відповісти