Щоденники Чорнобиля (Заборонена зона) / Chernobyl Diaries (2012) 1080p 2xUkr/Eng | Sub Eng

Нові коментарі

Нова тема   Відповісти
Автор Повідомлення
staf777 
Відео Гуртом - підтримка та поширення
Відео Гуртом - підтримка та поширення


З нами з: 16.11.16
Востаннє: 07.12.19
Повідомлень: 3038

2018-05-08 14:13  
Щоденники Чорнобиля (Заборонена зона) / Chernobyl Diaries (2012) 1080p 2xUkr/Eng | Sub Eng

Щоденники Чорнобиля (Заборонена зона) / Chernobyl Diaries (2012) 1080p 2xUkr/Eng | Sub Eng


Жанр: жахи, трилер
Країна: США



Кінокомпанія: Alcon Entertainment, FilmNation Entertainment, Oren Peli / Brian Witten Pictures
Режисер: Бредлі Паркер
Актори: Інґрід Болсай Бердал, Олівія Дадлі, Девін Келлі, Джессі МакКартні, Натан Філліпс, Джонатан Садовський

Сюжет:
Шість молодих туристів-екстремалів прибули на канікули до України. Дізнавшись про те, що в Зону відчуження влаштовуються екскурсії, вони наймають гіда і вирушають за незабутніми враженнями. І враження не змушують їх довго чекати. Здавалось би, радіоактивне місто порожнє і покинуте. Там не залишилося нічого живого. Але щойно сонце ховається за горизонт, Прип'ять оживає. Нелюдські крики стрясають нічне повітря. Невдачливих мандрівників охоплюють жах і паніка. Вони розуміють, що не одні в цьому мертвому місті.


Тривалість: 01:28:23
Якість:
Відео:
кодек:
розмір кадру: 1920x1036
бітрейт: 12.7 Мб/с

Аудіо # 1:
мова:українська
переклад: багатоголосий закадровий
кодек: 2.0
бітрейт: 192 кб/с

Аудіо # 2:
мова: українська
переклад: багатоголосий закадровий
кодек: 2.0
бітрейт: 192 кб/с

Аудіо # 3:
мова: англійська
переклад: оригінал
кодек: 5.1
бітрейт: 1509 кб/с

Субтитри:
мова: англійська
тип: програмні (м'які)
формат: *.srt
Info
General
Unique ID : 179940539042782198307557823117811930005 (0x875F49883E7292268C2BBEA41B5A5395)
Complete name : H:\Chernobyl Diaries (2012) 1080p [2xUKR_ENG] [Hurtom]).
Format :
Format version : Version 4 / Version 2
File size : 8.97 GiB
Duration : 1 h 28 min
Overall bit rate : 14.5 Mb/s
Movie name : Chernobyl Diaries (2012) 1080p [2xUKR_ENG] [Hurtom]
Encoded date : UTC 2018-05-08 11:49:20
Writing application : v9.8.0 ('Kuglblids') 64bit
Writing library : libebml v1.3.4 + v1.4.5
Cover : Yes
Attachments : cover.jpg

Video
ID : 1
Format : AVC
Format/Info : Advanced Video Codec
Format profile : [email protected]
Format settings : CABAC / 4 Ref Frames
Format settings, CABAC : Yes
Format settings, ReFrames : 4 frames
Codec ID : V_MPEG4/ISO/AVC
Duration : 1 h 28 min
Bit rate : 12.7 Mb/s
Width : 1 920 pixels
Height : 1 036 pixels
Display aspect ratio : 1.85:1
Frame rate mode : Constant
Frame rate : 23.976 (24000/1001) FPS
Color space : YUV
Chroma subsampling : 4:2:0
Bit depth : 8 bits
Scan type : Progressive
Bits/(Pixel*Frame) : 0.265
Stream size : 7.80 GiB (87%)
Writing library : core 125 r2208 d9d2288
Encoding settings : cabac=1 / ref=4 / deblock=1:-3:-3 / analyse=0x3:0x133 / me=umh / subme=10 / psy=1 / psy_rd=1.00:0.00 / mixed_ref=1 / me_range=48 / chroma_me=1 / trellis=2 / 8x8dct=1 / cqm=0 / deadzone=21,11 / fast_pskip=1 / chroma_qp_offset=-2 / threads=12 / lookahead_threads=2 / sliced_threads=0 / nr=0 / decimate=0 / interlaced=0 / bluray_compat=0 / constrained_intra=0 / bframes=7 / b_pyramid=2 / b_adapt=2 / b_bias=0 / direct=3 / weightb=1 / open_gop=0 / weightp=2 / keyint=250 / keyint_min=23 / scenecut=40 / intra_refresh=0 / rc_lookahead=80 / rc=2pass / mbtree=1 / bitrate=12661 / ratetol=1.0 / qcomp=0.60 / qpmin=0 / qpmax=69 / qpstep=4 / cplxblur=20.0 / qblur=0.5 / vbv_maxrate=30000 / vbv_bufsize=30000 / nal_hrd=none / ip_ratio=1.50 / aq=1:1.00
Language : English
Default : Yes
Forced : Yes

Audio #1
ID : 2
Format : AC-3
Format/Info : Audio Coding 3
Codec ID : A_AC3
Duration : 1 h 28 min
Bit rate mode : Constant
Bit rate : 192 kb/s
Channel(s) : 2 channels
Channel positions : Front: L R
Sampling rate : 48.0 kHz
Frame rate : 31.250 FPS (1536 SPF)
Bit depth : 16 bits
Compression mode : Lossy
Stream size : 121 MiB (1%)
Title : [UA-MVO-NLO]
Language : Ukrainian
Service kind : Complete Main
Default : Yes
Forced : Yes

Audio #2
ID : 3
Format : AC-3
Format/Info : Audio Coding 3
Codec ID : A_AC3
Duration : 1 h 28 min
Bit rate mode : Constant
Bit rate : 192 kb/s
Channel(s) : 2 channels
Channel positions : Front: L R
Sampling rate : 48.0 kHz
Frame rate : 31.250 FPS (1536 SPF)
Bit depth : 16 bits
Compression mode : Lossy
Stream size : 121 MiB (1%)
Title : [UA-MVO-NTN]
Language : Ukrainian
Service kind : Complete Main
Default : No
Forced : No

Audio #3
ID : 4
Format :
Format/Info : Digital Theater Systems
Codec ID : A_DTS
Duration : 1 h 28 min
Bit rate mode : Constant
Bit rate : 1 509 kb/s
Channel(s) : 6 channels
Channel positions : Front: L C R, Side: L R, LFE
Sampling rate : 48.0 kHz
Frame rate : 93.750 FPS (512 SPF)
Bit depth : 16 bits
Compression mode : Lossy
Stream size : 954 MiB (10%)
Language : English
Default : No
Forced : No

Text
ID : 5
Format : UTF-8
Codec ID : S_TEXT/UTF8
Codec ID/Info : UTF-8 Plain Text
Duration : 1 h 19 min
Bit rate : 60 b/s
Count of elements : 1111
Stream size : 35.5 KiB (0%)
Language : English
Default : No
Forced : No
Скріншоти




За доріжку від НЛО дякую п. patriot2305, Sando7, POMEO
За доріжку від НТН дякую пану Bohdan237, Arsenfpu

Джерело: &
Особиста оцінка: 6 - третій сорт - не брак


 Трекер:    Зареєстрований   

Завантажити / скачати фільм українською



відео для новачків



 Зареєстрований:   2018-05-08 14:13
 Розмір:   8.97 GB 
 Оцінка фільму:   7/10 (Голосів: 9)
   
Oleksa9 
VIP


З нами з: 17.05.12
Востаннє: 07.12.19
Повідомлень: 386

2018-05-08 15:11  
Chernobyl - epic fail, потреба перегляду зникла )
sergiy.bunin 
Частий відвідувач


З нами з: 15.02.13
Востаннє: 06.12.19
Повідомлень: 25

2018-05-08 15:28  
Фільм не вартий оцінки навіть в 1.
taksist 
VIP


З нами з: 10.12.12
Востаннє: 07.12.19
Повідомлень: 282

2018-05-08 15:48  
чЕрнобиль нехай москалі дивляться.
Ваш часовий пояс: GMT + 2 Години

Нова тема   Відповісти