Вінчестер. Будинок, збудований привидами / Winchester: The House that Ghosts Built (2018)

Нові коментарі

Нова тема   Відповісти
Автор Повідомлення
igor911 
Відео Гуртом
Відео Гуртом


З нами з: 18.01.08
Востаннє: 20.04.19
Повідомлень: 12307

2018-05-08 11:38  
Вінчестер. Будинок, збудований привидами / Winchester: The House that Ghosts Built (2018)

Вінчестер. Будинок, збудований привидами / Winchester: The House that Ghosts Built (2018)
Альтернативний постер



Жанр: біографічний, детектив, жахи, трилер, фентезі
Країна: США



Кінокомпанія: Blacklab Entertainment, Imagination Design Works
Режисер: Майкл Спіріг / Michael Spierig, Пітер Спіріг / Peter Spierig
Актори: Гелен Міррен / Helen Mirren, Сара Снук / Sarah Snook, Джейсон Кларк / Jason Clarke, Емм Вайзман / Emm Wiseman, Тайлер Коппін / Tyler Coppin, Майкл Карман / Michael Carman, Ангус Семпсон / Angus Sampson та інші

Сюжет:
Засновано на реальних подіях, що відбувалися в найзловіснішому будинку у історії людства. Сара Вінчестер, спадкоємиця знаменитої збройової компанії, живе одна у грандіозній семиповерховій будівлі, архітектура якої не піддається логіці, а коридори подібні лабіринтам. За розпорядженням невтішної вдови особняк постійно перебудовується і нескінченно споруджуються нові стіни. Але будує вона не для себе, не для своєї племінниці або талановитого доктора Еріка Прайса, який приїхав в особняк на її запрошення. Сара будує пастку для сотень мстивих привидів, і найстрашніші з них хочуть розправитися з кланом Вінчестерів...


Тривалість: 01:39:30
Якість:

Відео:
кодек:
розмір кадру: 720 х 304
бітрейт: 1644 кб/с

Аудіо:
мова: українська
переклад: професійний дубльований | студія ААА-sound
кодек: 5.1
бітрейт: 384 кб/с
Інформація про дубляж
Переклад: Юлія Когут
Режисер дубляжу та звукорежисер перезапису: Олександр Єфімов
Ролі дублювали: Михайло Кришталь, Олена Узлюк, Катерина Брайковська, Євген Пашин, Юлія Перенчук, Андрій Федінчик, Катерина Буцька, Андрій Альохін, Юрій Ребрик, Ярослав Чорненький та інші.

Фільм дубльовано студією ААА-sound у 2018 році на замовлення компанії Вольга Україна.
Info
Код:
General
Complete name               : Winchester. The House that Ghosts Built (2018) [Ukr] [Hurtom].avi
Format                      : AVI
Format/Info                 : Audio Video Interleave
File size                   : 1.42 GiB
Duration                    : 1 h 39 min
Overall bit rate            : 2 037 kb/s
Movie name                  : Вінчестер. Будинок, збудований привидами / Winchester: The House that Ghosts Built (2018) [Ukr] [Hurtom]
Genre                       : біографічний, детектив, жахи, трилер, фентезі
Writing application         : VirtualDubModUkr 1.5.10.2 (build 2542/release)
Writing library             : VirtualDubMod build 2542/release
Comment                     : https://toloka.to/t89799

Video
ID                          : 0
Format                      : MPEG-4 Visual
Format profile              : Advanced [email protected]
Format settings             : BVOP1 / Custom Matrix
Format settings, BVOP       : 1
Format settings, QPel       : No
Format settings, GMC        : No warppoints
Format settings, Matrix     : Custom
Codec ID                    :
Codec ID/Hint               :
Duration                    : 1 h 39 min
Bit rate                    : 1 644 kb/s
Width                       : 720 pixels
Height                      : 304 pixels
Display aspect ratio        : 2.35:1
Frame rate                  : 23.976 (24000/1001) FPS
Color space                 : YUV
Chroma subsampling          : 4:2:0
Bit depth                   : 8 bits
Scan type                   : Progressive
Compression mode            : Lossy
Bits/(Pixel*Frame)          : 0.313
Stream size                 : 1.14 GiB (81%)
Writing library             : 73

Audio
ID                          : 1
Format                      : AC-3
Format/Info                 : Audio Coding 3
Codec ID                    : 2000
Duration                    : 1 h 39 min
Bit rate mode               : Constant
Bit rate                    : 384 kb/s
Channel(s)                  : 6 channels
Channel positions           : Front: L C R, Side: L R, LFE
Sampling rate               : 48.0 kHz
Frame rate                  : 31.250 FPS (1536 SPF)
Bit depth                   : 16 bits
Compression mode            : Lossy
Stream size                 : 273 MiB (19%)
Alignment                   : Split accross interleaves
Interleave, duration        : 42  ms (1.00 video frame)
Interleave, preload duratio : 500  ms
Title                       : UKR DUB [AAA-sound, iTunes]
Service kind                : Complete Main


Джерело: & &


 Трекер:    Зареєстрований   

Завантажити / скачати фільм українською



відео для новачків



 Зареєстрований:   2018-05-08 11:52
 Розмір:   1.42 GB 
 Оцінка фільму:   9/10 (Голосів: 23)
   
Baco 
Новенький


З нами з: 10.09.13
Востаннє: 14.02.19
Повідомлень: 12

2018-05-08 15:58  
Агой, шанувальники кінофільму, хто дивився, дайте відгук про фільм, а кацапомовних треба одразу "в ізолятор" або редіректити до рутрекеру.
hetzendorf 
Попереджень: 1
Попереджень: 1 


З нами з: 23.07.15
Востаннє: 20.04.19
Повідомлень: 2041

2018-05-09 00:18  
Baco написано:
дайте відгук про фільм

У FullHD-темі >>>

DEAN123321 
Новенький


З нами з: 28.01.16
Востаннє: 19.03.19
Повідомлень: 21

2018-05-09 00:22  
Baco
непоганий фільм, переглядав в кіно.

mr.desber 
Новенький


З нами з: 04.01.16
Востаннє: 19.04.19
Повідомлень: 11

2018-05-13 18:04  
Мені дуже сподобався фільм, раджу до перегляду
Ваш часовий пояс: GMT + 2 Години

Нова тема   Відповісти